<?xml version="1.0" standalone="no"?>
<!DOCTYPE svg PUBLIC "-//W3C//DTD SVG 1.1//EN" "http://www.w3.org/Graphics/SVG/1.1/DTD/svg11.dtd" >
<svg xmlns="http://www.w3.org/2000/svg" xmlns:xlink="http://www.w3.org/1999/xlink" version="1.1">
<metadata>
Created by FontForge 20170731 at Sun Jan 22 11:00:46 2006
 By Aleksey,,,
HTF Gotham\252 Copr. 2000 The Hoefler Type Foundry, Inc. Info: www.typography.com
</metadata>
<defs>
<font id="Gotham-Light" horiz-adv-x="500" >
  <font-face 
    font-family="Gotham"
    font-weight="300"
    font-stretch="normal"
    units-per-em="1000"
    panose-1="2 0 5 4 2 0 0 2 0 4"
    ascent="800"
    descent="-200"
    x-height="510"
    cap-height="700"
    bbox="-67 -164.261 1145 898"
    underline-thickness="20"
    underline-position="-223"
    unicode-range="U+0020-FB02"
  />
<missing-glyph 
 />
    <glyph glyph-name=".notdef" 
 />
    <glyph glyph-name=".null" horiz-adv-x="0" 
 />
    <glyph glyph-name="nonmarkingreturn" horiz-adv-x="300" 
 />
    <glyph glyph-name="space" unicode=" " horiz-adv-x="300" 
 />
    <glyph glyph-name="exclam" unicode="!" horiz-adv-x="252" 
d="M97 700v-70l15 -447h28l15 447v70h-58zM159 0v85h-66v-85h66z" />
    <glyph glyph-name="quotedbl" unicode="&#x22;" horiz-adv-x="410" 
d="M248 446h29l71 249v5h-65zM68 446h29l71 249v5h-65z" />
    <glyph glyph-name="numbersign" unicode="#" horiz-adv-x="700" 
d="M650 470v47h-120l31 183h-48l-31 -183h-207l31 183h-48l-31 -183h-138v-47h130l-41 -236h-129v-47h121l-32 -187h48l32 187h207l-32 -187h48l32 187h137v47h-129l41 236h128zM474 470l-41 -236h-207l41 236h207z" />
    <glyph glyph-name="dollar" unicode="$" horiz-adv-x="632" 
d="M559 185q0 73 -51 118t-165 69v281q44 -5 83.5 -23t78.5 -53l33 39q-45 36 -90 56.5t-103 25.5v60h-48v-58q-46 -1 -84.5 -15.5t-66.5 -38.5t-43.5 -56.5t-15.5 -70.5t12 -67t37.5 -52t66 -40t96.5 -29v-284q-61 5 -110 30.5t-96 69.5l-33 -39q54 -48 111 -74.5
t126 -32.5v-99h48v98q47 2 86.5 16t68 38.5t44 57.5t15.5 73zM299 382q-49 12 -80 26t-49 31.5t-25 38t-7 45.5q0 27 11.5 50.5t32.5 41.5t51 28.5t66 11.5v-273zM508 181q0 -29 -11.5 -53t-33.5 -42t-52.5 -29t-67.5 -12v276q49 -11 81 -24.5t51 -30.5t26 -38t7 -47z" />
    <glyph glyph-name="percent" unicode="%" horiz-adv-x="824" 
d="M363 530q0 35 -11 67.5t-31 57t-48.5 39t-62.5 14.5q-35 0 -63.5 -15t-49 -39.5t-31.5 -57t-11 -68.5q0 -35 11 -67.5t31 -57t48 -39t63 -14.5t63.5 15t49 39.5t31.5 57t11 68.5zM696 700h-54l-514 -700h54zM769 172q0 35 -11 67.5t-31 57t-48.5 39t-62.5 14.5
q-35 0 -63.5 -15t-49 -39.5t-31.5 -57t-11 -68.5q0 -35 11 -67.5t31 -57t48 -39t63 -14.5t63.5 15t49 39.5t31.5 57t11 68.5zM311 528q0 -29 -7.5 -53.5t-21 -42.5t-32 -28.5t-40.5 -10.5q-21 0 -39.5 10t-33 28.5t-22.5 43.5t-8 55q0 28 7.5 53t21 43t32 28.5t40.5 10.5
q21 0 39.5 -10t33 -28.5t22.5 -43.5t8 -55zM717 170q0 -29 -7.5 -53.5t-21 -42.5t-32 -28.5t-40.5 -10.5q-21 0 -39.5 10t-33 28.5t-22.5 43.5t-8 55q0 28 7.5 53t21 43t32 28.5t40.5 10.5q21 0 39.5 -10t33 -28.5t22.5 -43.5t8 -55z" />
    <glyph glyph-name="ampersand" unicode="&#x26;" horiz-adv-x="696" 
d="M663 20l-129 133q29 38 54.5 85t49.5 101l-47 19q-20 -48 -42.5 -91t-48.5 -79l-184 189q81 28 126.5 71.5t45.5 110.5q0 32 -12.5 60t-34 48.5t-51 32.5t-63.5 12q-38 0 -70.5 -12t-55.5 -33.5t-36 -51t-13 -63.5q0 -45 19 -80.5t59 -80.5q-86 -32 -133.5 -83
t-47.5 -123q0 -44 16.5 -79.5t45 -61.5t68 -40t85.5 -14q71 0 129 31.5t108 89.5l121 -125zM436 557q0 -100 -151 -148q-23 25 -38.5 44.5t-25 36t-13.5 32t-4 32.5q0 24 9 45t25 36t38 24t49 9q48 0 79.5 -31.5t31.5 -79.5zM468 145q-44 -51 -94 -80.5t-109 -29.5
q-36 0 -66 11.5t-52 32t-34 48.5t-12 60q0 52 38 97.5t122 74.5z" />
    <glyph glyph-name="quotesingle" unicode="'" horiz-adv-x="230" 
d="M68 446h29l71 249v5h-65z" />
    <glyph glyph-name="parenleft" unicode="(" horiz-adv-x="430" 
d="M369 682l-21 33q-133 -75 -205 -183t-72 -245t72 -245t205 -183l21 33q-119 73 -182.5 171t-63.5 224t63.5 224t182.5 171z" />
    <glyph glyph-name="parenright" unicode=")" horiz-adv-x="430" 
d="M61 682q119 -73 182.5 -171t63.5 -224t-63.5 -224t-182.5 -171l21 -33q133 75 205 183t72 245t-72 245t-205 183z" />
    <glyph glyph-name="asterisk" unicode="*" horiz-adv-x="430" 
d="M355 498l-118 56l118 56l-22 37l-106 -72l9 127h-42l9 -127l-106 72l-22 -37l118 -56l-118 -56l22 -37l106 72l-9 -127h42l-9 127l106 -72z" />
    <glyph glyph-name="plus" unicode="+" horiz-adv-x="640" 
d="M295 376h-217v-48h217v-215h50v215h217v48h-217v215h-50v-215z" />
    <glyph glyph-name="comma" unicode="," horiz-adv-x="230" 
d="M53 -82l12 -25q45 17 64 44t19 74v74h-66v-85h27q2 -29 -11 -47t-45 -35z" />
    <glyph glyph-name="hyphen" unicode="-" horiz-adv-x="408" 
d="M338 269v56h-268v-56h268z" />
    <glyph glyph-name="period" unicode="." horiz-adv-x="230" 
d="M148 0v85h-66v-85h66z" />
    <glyph glyph-name="slash" unicode="/" 
d="M454 798l-472 -926h49l472 926h-49z" />
    <glyph glyph-name="zero" unicode="0" horiz-adv-x="710" 
d="M645 351q0 73 -20 138.5t-57.5 115t-91 78.5t-120.5 29t-120.5 -29.5t-91.5 -79.5t-58.5 -115.5t-20.5 -138.5t20 -138.5t57.5 -115t91 -78.5t120.5 -29t120.5 29.5t91.5 79.5t58.5 115.5t20.5 138.5zM591 349q0 -62 -16.5 -118.5t-47 -100t-74 -69.5t-97.5 -26t-98 26.5
t-75 70t-47.5 100.5t-16.5 119q0 61 16.5 118t47 100.5t74 69.5t97.5 26t98 -26.5t75 -70t47.5 -101t16.5 -118.5z" />
    <glyph glyph-name="one" unicode="1" horiz-adv-x="335" 
d="M30 646l14 -41l135 46v-651h51v705h-40z" />
    <glyph glyph-name="two" unicode="2" horiz-adv-x="590" 
d="M306 664q31 0 60 -10.5t50.5 -30t34.5 -47.5t13 -62q0 -28 -8 -54t-26 -54t-48 -60t-73 -71l-261 -236v-39h478v50h-396l214 194q46 42 79 76.5t54.5 66t31.5 63t10 67.5q0 41 -16 76.5t-43.5 61.5t-65.5 40.5t-83 14.5q-46 0 -82 -10.5t-65.5 -30t-54 -47t-47.5 -62.5
l39 -26q44 63 91 96.5t114 33.5z" />
    <glyph glyph-name="three" unicode="3" horiz-adv-x="610" 
d="M457 651l-241 -278l13 -29h38q47 0 87 -10t69 -29.5t45.5 -48t16.5 -65.5q0 -35 -14 -63.5t-37.5 -49t-55 -32t-66.5 -11.5q-69 0 -122.5 29t-95.5 83l-40 -33q43 -56 107 -91t150 -35q45 0 86.5 14.5t73 41.5t50 65t18.5 84q0 48 -20 84t-54 60.5t-79 38t-95 16.5
l237 271v37h-438v-49h367z" />
    <glyph glyph-name="four" unicode="4" horiz-adv-x="664" 
d="M448 705l-400 -495l18 -39h379v-171h50v171h114v45h-114v489h-47zM445 216h-334l334 414v-414z" />
    <glyph glyph-name="five" unicode="5" horiz-adv-x="605" 
d="M102 361l40 -26q33 18 71 31t87 13q42 0 77.5 -12.5t61 -34.5t39.5 -52.5t14 -67.5t-14 -69.5t-38.5 -56.5t-59 -37.5t-76.5 -13.5q-56 0 -109 27.5t-101 75.5l-37 -37q46 -47 109.5 -80t135.5 -33q53 0 97.5 16.5t77 46.5t51 71.5t18.5 91.5q0 47 -18.5 86t-51 67
t-76 43.5t-94.5 15.5q-49 0 -85 -10.5t-70 -27.5l17 262h347v50h-393z" />
    <glyph glyph-name="six" unicode="6" horiz-adv-x="642" 
d="M551 631q-46 38 -94 59.5t-108 21.5q-65 0 -118 -29.5t-90 -81t-57 -121t-20 -148.5q0 -55 5.5 -96.5t17 -73.5t28 -57t38.5 -47q32 -32 78 -51t100 -19q52 0 96.5 17t77.5 48t52 73.5t19 92.5q0 47 -19.5 86.5t-52.5 67.5t-77 43.5t-92 15.5q-43 0 -77 -11t-60.5 -29
t-46.5 -41.5t-35 -48.5q-2 80 13.5 147t45.5 115t73.5 74.5t96.5 26.5q50 0 91 -19t82 -55zM522 217q0 -38 -13.5 -71t-38 -57.5t-59 -39t-76.5 -14.5t-78.5 13.5t-63 37t-41.5 56t-15 70.5q0 33 14.5 64t40 55.5t61.5 39.5t79 15q42 0 76.5 -13t60 -35.5t39.5 -53.5t14 -67
z" />
    <glyph glyph-name="seven" unicode="7" horiz-adv-x="587" 
d="M68 650h406l-318 -650h57l319 662v38h-464v-50z" />
    <glyph glyph-name="eight" unicode="8" horiz-adv-x="630" 
d="M575 188q0 31 -12 58t-32.5 49t-49 39t-61.5 28q26 10 49.5 25.5t41.5 35.5t29 45.5t11 57.5q0 41 -20 75t-53 58t-75.5 37.5t-87.5 13.5t-87.5 -13.5t-75.5 -37.5t-53 -58t-20 -75q0 -32 11 -57.5t29 -45.5t41.5 -35.5t49.5 -25.5q-33 -11 -61.5 -28t-49 -39t-32.5 -49
t-12 -58q0 -44 20 -80.5t55 -62.5t82.5 -40.5t102.5 -14.5t102.5 14.5t82.5 40.5t55 62.5t20 80.5zM497 526q0 -33 -14.5 -59.5t-39.5 -45.5t-58 -29.5t-70 -10.5t-70 10.5t-58 29.5t-39.5 45.5t-14.5 59.5q0 30 14 55t38.5 43.5t58 28.5t71.5 10t71.5 -10t58 -28.5
t38.5 -43.5t14 -55zM521 186q0 -30 -14 -57t-40.5 -47.5t-65 -32.5t-86.5 -12t-86.5 12t-65 32.5t-40.5 47.5t-14 57q0 33 16 60.5t44 48t65.5 31.5t80.5 11t80.5 -11t65.5 -31.5t44 -48t16 -60.5z" />
    <glyph glyph-name="nine" unicode="9" horiz-adv-x="642" 
d="M578 367q0 53 -6 94.5t-17 74.5t-27.5 58.5t-37.5 46.5q-32 32 -76.5 51.5t-101.5 19.5q-55 0 -100 -18.5t-77.5 -50.5t-50.5 -75t-18 -92q0 -45 18 -84.5t50 -68.5t76.5 -45.5t97.5 -16.5q41 0 74.5 11t60.5 29.5t47.5 43t35.5 51.5q3 -79 -13 -145t-47 -114t-75 -75
t-97 -27q-48 0 -91 20t-88 60l-33 -40q44 -37 94.5 -62t116.5 -25q61 0 113 28t90.5 78.5t60 120t21.5 152.5zM505 486q0 -33 -13.5 -65.5t-39 -57.5t-61.5 -40.5t-81 -15.5q-42 0 -76.5 13t-60 35.5t-39.5 54t-14 68.5t13 70.5t37 59.5t58.5 41.5t77.5 15.5t80 -14t63 -38
t41 -57t15 -70z" />
    <glyph glyph-name="colon" unicode=":" horiz-adv-x="240" 
d="M153 425v85h-66v-85h66zM153 0v85h-66v-85h66z" />
    <glyph glyph-name="semicolon" unicode=";" horiz-adv-x="240" 
d="M153 425v85h-66v-85h66zM58 -82l12 -25q45 17 64 44t19 74v74h-66v-85h27q2 -29 -11 -47t-45 -35z" />
    <glyph glyph-name="less" unicode="&#x3c;" horiz-adv-x="640" 
d="M73 372v-40l464 -241v54l-403 208l403 206v54z" />
    <glyph glyph-name="equal" unicode="=" horiz-adv-x="640" 
d="M93 490v-51h454v51h-454zM93 265v-51h454v51h-454z" />
    <glyph glyph-name="greater" unicode="&#x3e;" horiz-adv-x="640" 
d="M567 332v40l-464 241v-54l403 -208l-403 -206v-54z" />
    <glyph glyph-name="question" unicode="?" horiz-adv-x="534" 
d="M221 350l-5 -5l13 -162h32l9 125q43 5 82 20t67.5 40.5t45.5 61.5t17 83q0 40 -15.5 76t-43.5 62.5t-68.5 42t-89.5 15.5q-80 0 -134 -33t-97 -86l36 -30q39 48 86 75.5t107 27.5q38 0 69 -12t52.5 -33t33 -48.5t11.5 -58.5q0 -73 -54 -116t-154 -45zM278 0v85h-66v-85
h66z" />
    <glyph glyph-name="at" unicode="@" horiz-adv-x="980" 
d="M927 316q0 79 -33.5 151t-92.5 126.5t-138.5 86.5t-171.5 32t-172 -35t-139 -94.5t-93 -139t-34 -169.5t33.5 -169t93.5 -138.5t141.5 -94t177.5 -34.5q78 0 142.5 20t122.5 55l-15 25q-58 -34 -116.5 -51t-133.5 -17q-90 0 -166 31.5t-130.5 86.5t-85 128.5t-30.5 157.5
t30.5 157.5t84.5 129t128 87.5t161 32q86 0 159.5 -31t127.5 -82t84.5 -116.5t30.5 -134.5q0 -54 -12.5 -93.5t-33 -64.5t-46.5 -37t-52 -12q-43 0 -66.5 22.5t-23.5 65.5q0 19 9 72l37 211l-48 6l-14 -75q-9 16 -22 32t-31 29t-42 20.5t-54 7.5q-42 0 -83.5 -19t-75 -52
t-54 -78.5t-20.5 -99.5q0 -40 14 -72.5t38 -56t56.5 -36.5t68.5 -13q30 0 54.5 7.5t45.5 20t38.5 29.5t32.5 36q13 -43 48 -68t88 -25q32 0 64.5 14t58.5 43.5t42.5 75.5t16.5 110zM626 313q0 -37 -15 -71.5t-40 -61.5t-57.5 -43.5t-67.5 -16.5q-59 0 -96 35.5t-37 99.5
q0 42 15.5 78t41 62.5t58 41.5t66.5 15q28 0 52.5 -10.5t42 -29.5t27.5 -44t10 -55z" />
    <glyph glyph-name="A" unicode="A" horiz-adv-x="790" 
d="M746 0l-326 705h-50l-326 -705h54l89 196h413l89 -196h57zM578 243h-369l185 405z" />
    <glyph glyph-name="B" unicode="B" horiz-adv-x="722" 
d="M659 191v2q0 36 -13 63.5t-34.5 48t-50.5 34t-60 21.5q21 9 42.5 22.5t38.5 33.5t27.5 47t10.5 63v2q0 39 -16.5 71t-46 54.5t-71.5 34.5t-93 12h-289v-700h304q57 0 103 13.5t79 38t51 60t18 79.5zM567 521q0 -35 -13.5 -62t-37.5 -45t-57 -27.5t-72 -9.5h-231v275h236
q85 0 130 -35.5t45 -93.5v-2zM606 191q0 -66 -53 -104.5t-143 -38.5h-254v281h237q104 0 158.5 -35.5t54.5 -100.5v-2z" />
    <glyph glyph-name="C" unicode="C" horiz-adv-x="738" 
d="M699 110l-35 34q-53 -53 -109 -81t-132 -28q-63 0 -117 24.5t-93.5 67t-62.5 100t-23 123.5v2q0 66 22.5 123t62 99.5t93.5 66.5t117 24q39 0 72.5 -8t62 -21.5t53.5 -32.5t48 -41l37 38q-27 25 -55.5 45.5t-61 35.5t-70.5 23t-85 8q-76 0 -140 -28.5t-110.5 -78
t-73 -115.5t-26.5 -140v-2q0 -75 26 -141t72.5 -114.5t110.5 -76.5t139 -28q46 0 85 9t72.5 25t63 38.5t57.5 49.5z" />
    <glyph glyph-name="D" unicode="D" horiz-adv-x="782" 
d="M709 350v2q0 74 -27 137.5t-76.5 110.5t-118 73.5t-150.5 26.5h-233v-700h233q82 0 150.5 27t118 74t76.5 111t27 138zM655 348q0 -63 -22.5 -117.5t-63.5 -95t-100 -64t-132 -23.5h-181v604h181q73 0 132 -24t100 -65t63.5 -96t22.5 -117v-2z" />
    <glyph glyph-name="E" unicode="E" horiz-adv-x="670" 
d="M607 0v48h-451v281h401v48h-401v275h446v48h-498v-700h503z" />
    <glyph glyph-name="F" unicode="F" horiz-adv-x="656" 
d="M597 652v48h-493v-700h52v317h396v48h-396v287h441z" />
    <glyph glyph-name="G" unicode="G" horiz-adv-x="784" 
d="M700 93v270h-284v-48h234v-201q-19 -16 -44 -30.5t-53.5 -25.5t-60.5 -17.5t-65 -6.5q-70 0 -125.5 24t-94.5 66t-59.5 100t-20.5 126v2q0 63 21 120t59.5 100t91.5 68t117 25q79 0 131.5 -24t93.5 -60l34 39q-26 22 -53.5 39t-58 29t-66 18t-78.5 6q-78 0 -142 -30
t-109.5 -80t-70 -115.5t-24.5 -136.5v-2q0 -74 24 -139.5t69 -114.5t110.5 -77.5t148.5 -28.5q86 0 156.5 31.5t118.5 73.5z" />
    <glyph glyph-name="H" unicode="H" horiz-adv-x="760" 
d="M656 0v700h-52v-324h-448v324h-52v-700h52v328h448v-328h52z" />
    <glyph glyph-name="I" unicode="I" horiz-adv-x="274" 
d="M163 0v700h-52v-700h52z" />
    <glyph glyph-name="J" unicode="J" horiz-adv-x="549" 
d="M456 228v472h-52v-476q0 -46 -11.5 -81t-32 -58.5t-48.5 -35.5t-60 -12q-31 0 -55.5 7t-45 21t-38 35t-33.5 48l-43 -27q32 -58 83 -94.5t129 -36.5q43 0 81 15t66 45t44 74.5t16 103.5z" />
    <glyph glyph-name="K" unicode="K" horiz-adv-x="715" 
d="M686 0l-319 391l306 309h-71l-446 -460v460h-52v-700h52v178l174 176l288 -354h68z" />
    <glyph glyph-name="L" unicode="L" horiz-adv-x="619" 
d="M567 0v48h-411v652h-52v-700h463z" />
    <glyph glyph-name="M" unicode="M" horiz-adv-x="868" 
d="M764 0v700h-49l-281 -414l-281 414h-49v-700h50v608l277 -403h4l277 403v-608h52z" />
    <glyph glyph-name="N" unicode="N" horiz-adv-x="790" 
d="M686 0v700h-50v-609l-483 609h-49v-700h50v622l493 -622h39z" />
    <glyph glyph-name="O" unicode="O" horiz-adv-x="850" 
d="M777 350q1 1 0 2q0 72 -25 137t-71 114.5t-111 79t-144 29.5q-80 0 -145 -29.5t-111 -79.5t-71.5 -115.5t-25.5 -137.5v-2q0 -72 25 -137t71 -114.5t110.5 -79t144.5 -29.5q79 0 144.5 29.5t111.5 79.5t71.5 115.5t25.5 137.5zM723 348q0 -65 -22 -122t-61.5 -99.5
t-94 -67t-119.5 -24.5t-120 25t-94.5 67.5t-62 100t-22.5 122.5v2q0 65 22 122t61.5 99.5t94 67t119.5 24.5t120 -25t94.5 -67.5t62 -100t22.5 -122.5v-2z" />
    <glyph glyph-name="P" unicode="P" horiz-adv-x="668" 
d="M618 484v2q0 51 -19 90.5t-53.5 67t-82 42t-105.5 14.5h-254v-700h52v261h189q55 0 104.5 14t87 42t59.5 70t22 97zM566 481q0 -39 -16 -71t-44.5 -54.5t-68.5 -34.5t-89 -12h-192v343h198q47 0 86 -11t67 -32t43.5 -52.5t15.5 -73.5v-2z" />
    <glyph glyph-name="Q" unicode="Q" horiz-adv-x="850" 
d="M785 19l-100 84q45 50 68.5 113.5t23.5 133.5q1 1 0 2q0 72 -25 137t-71 114.5t-111 79t-144 29.5q-80 0 -145 -29.5t-111 -79.5t-71.5 -115.5t-25.5 -137.5v-2q0 -72 25 -137t71 -114.5t110.5 -79t144.5 -29.5q68 0 124.5 21t101.5 59l98 -89zM723 348q0 -61 -20 -115.5
t-56 -96.5l-134 122l-37 -41l136 -116q-37 -31 -84 -48.5t-102 -17.5q-65 0 -120 25t-94.5 67.5t-62 100t-22.5 122.5v2q0 65 22 122t61.5 99.5t94 67t119.5 24.5t120 -25t94.5 -67.5t62 -100t22.5 -122.5v-2z" />
    <glyph glyph-name="R" unicode="R" horiz-adv-x="723" 
d="M674 0l-231 299q44 6 81.5 21.5t65 40.5t43 59.5t15.5 78.5v2q0 44 -18 80.5t-50.5 63t-78.5 41t-103 14.5h-294v-700h52v290h229l223 -290h66zM596 497q0 -38 -15.5 -67.5t-42.5 -50t-64.5 -31.5t-81.5 -11h-236v315h239q96 0 148.5 -41t52.5 -112v-2z" />
    <glyph glyph-name="S" unicode="S" horiz-adv-x="640" 
d="M573 181v2q0 77 -54 122.5t-176 70.5q-62 13 -102 28t-62.5 33.5t-31 41t-8.5 50.5v2q0 27 12 51t34.5 42t54 28.5t70.5 10.5q58 0 108.5 -18t100.5 -61l33 41q-53 43 -108.5 64t-131.5 21q-49 0 -90 -14t-71 -39t-47 -58.5t-17 -72.5v-2q0 -40 13 -71t41.5 -54.5
t73.5 -41t108 -30.5q60 -12 98 -26.5t60.5 -32.5t31 -40t8.5 -50v-2q0 -30 -13 -55.5t-36 -44t-56 -29t-72 -10.5t-72 6.5t-63 19t-58.5 32t-57.5 46.5l-34 -39q63 -56 130.5 -84t151.5 -28q51 0 93.5 14t73 39t48 60.5t17.5 77.5z" />
    <glyph glyph-name="T" unicode="T" horiz-adv-x="648" 
d="M594 652v48h-540v-48h244v-652h52v652h244z" />
    <glyph glyph-name="U" unicode="U" horiz-adv-x="760" 
d="M667 297v403h-52v-409q0 -63 -16.5 -111t-47 -80t-73.5 -48t-96 -16q-112 0 -174.5 67.5t-62.5 192.5v404h-52v-409q0 -74 21 -130t59.5 -94.5t91 -58t115.5 -19.5q64 0 116.5 20t90.5 59t59 96.5t21 132.5z" />
    <glyph glyph-name="V" unicode="V" horiz-adv-x="750" 
d="M706 700h-55l-275 -644l-274 644h-58l308 -705h46z" />
    <glyph glyph-name="W" unicode="W" horiz-adv-x="1102" 
d="M1052 700h-54l-220 -623l-205 625h-40l-205 -625l-220 623h-58l254 -705h42l205 608l205 -608h42z" />
    <glyph glyph-name="X" unicode="X" horiz-adv-x="722" 
d="M671 0l-278 358l268 342h-61l-238 -308l-239 308h-62l269 -343l-279 -357h61l248 323l249 -323h62z" />
    <glyph glyph-name="Y" unicode="Y" horiz-adv-x="716" 
d="M684 700h-62l-263 -376l-262 376h-65l300 -423v-277h52v278z" />
    <glyph glyph-name="Z" unicode="Z" horiz-adv-x="688" 
d="M621 0v47h-479l479 624v29h-536v-47h462l-479 -624v-29h553z" />
    <glyph glyph-name="bracketleft" unicode="[" horiz-adv-x="430" 
d="M371 700h-273v-830h273v38h-227v754h227v38z" />
    <glyph glyph-name="backslash" unicode="\" 
d="M46 798h-49l472 -926h49z" />
    <glyph glyph-name="bracketright" unicode="]" horiz-adv-x="430" 
d="M59 700v-38h227v-754h-227v-38h273v830h-273z" />
    <glyph glyph-name="asciicircum" unicode="^" 
d="M249 660l128 -167h53l-158 210h-44l-158 -210h51z" />
    <glyph glyph-name="underscore" unicode="_" horiz-adv-x="600" 
d="M-2 -116v-44h604v44h-604z" />
    <glyph glyph-name="grave" unicode="`" 
d="M264 595h42l-88 133l-61 -30z" />
    <glyph glyph-name="a" unicode="a" horiz-adv-x="574" 
d="M491 0v318q0 100 -57 150t-156 50q-53 0 -96 -12t-85 -32l18 -43q35 18 74 29.5t86 11.5q79 0 123.5 -39t44.5 -117v-22q-37 10 -76 16t-93 6q-50 0 -91 -11t-70 -32t-45.5 -52t-16.5 -71v-2q0 -40 17.5 -70t45.5 -50t63 -30t71 -10t66.5 8.5t54.5 22t42.5 31t31.5 35.5
v-85h48zM444 191q0 -35 -15.5 -64t-42 -49.5t-61.5 -32t-74 -11.5q-29 0 -56 8t-47.5 23t-32.5 36.5t-12 49.5v2q0 54 43.5 86.5t124.5 32.5q55 0 98 -7.5t75 -15.5v-58z" />
    <glyph glyph-name="b" unicode="b" horiz-adv-x="660" 
d="M600 255v2q0 62 -21.5 111.5t-56.5 83.5t-79.5 52t-90.5 18q-38 0 -69.5 -10.5t-57 -27.5t-46.5 -40t-37 -48v334h-49v-730h49v110q16 -24 36.5 -46t46 -39t57.5 -27t70 -10q46 0 90.5 18.5t79.5 53t56.5 84t21.5 111.5zM547 253q0 -51 -15.5 -91.5t-42.5 -68.5
t-63.5 -43t-78.5 -15q-40 0 -77.5 16t-66.5 44.5t-46.5 69t-17.5 89.5v2q0 49 17.5 89t46.5 69t66.5 45t77.5 16t76.5 -15.5t64 -44t43.5 -69.5t16 -91v-2z" />
    <glyph glyph-name="c" unicode="c" horiz-adv-x="571" 
d="M526 89l-34 30q-32 -36 -74.5 -60.5t-96.5 -24.5q-44 0 -82 17t-66.5 47t-45 70.5t-16.5 86.5v2q0 46 16 86t43.5 69.5t65 46.5t81.5 17q57 0 97 -25t73 -59l35 36q-18 19 -38.5 36t-45.5 30t-54.5 20.5t-65.5 7.5q-55 0 -102.5 -21.5t-82.5 -58.5t-55 -85t-20 -102v-2
q0 -54 20 -102t55 -84t82.5 -57.5t102.5 -21.5q70 0 119.5 28.5t88.5 72.5z" />
    <glyph glyph-name="d" unicode="d" horiz-adv-x="660" 
d="M567 0v730h-49v-330q-16 24 -36.5 46t-46 39t-57.5 27t-70 10q-46 0 -90.5 -18.5t-79.5 -53t-56.5 -84t-21.5 -111.5v-2q0 -62 21.5 -111.5t56.5 -83.5t79.5 -52t90.5 -18q38 0 69.5 10.5t57 27.5t46 40t37.5 48v-114h49zM521 254q0 -49 -17.5 -89t-46.5 -69t-66.5 -45
t-77.5 -16t-76.5 15.5t-64 44t-43.5 69.5t-16 91v2q0 51 15.5 91.5t42.5 68.5t63.5 43t78.5 15q40 0 77.5 -16t66.5 -44.5t46.5 -69t17.5 -89.5v-2z" />
    <glyph glyph-name="e" unicode="e" horiz-adv-x="584" 
d="M110 235h423q1 6 1 9v9v2q0 57 -16.5 105.5t-47 84.5t-73.5 56.5t-97 20.5q-52 0 -96 -21t-76.5 -57t-51 -84.5t-18.5 -103.5v-2q0 -60 20 -109t54.5 -84t80 -54t95.5 -19q73 0 122.5 27t88.5 69l-34 30q-32 -34 -73.5 -57t-101.5 -23q-38 0 -72.5 13.5t-61.5 39.5
t-45 63t-21 85zM110 279q3 42 19 78.5t40.5 63t57.5 41.5t71 15q44 0 77 -16.5t55.5 -44t35 -63t15.5 -74.5h-371z" />
    <glyph glyph-name="f" unicode="f" horiz-adv-x="362" 
d="M351 675v46q-17 6 -35 9t-41 3q-72 0 -112 -45t-40 -128v-50h-74v-45h74v-465h49v465h178v45h-178v49q0 129 103 129q20 0 37 -3t39 -10z" />
    <glyph glyph-name="g" unicode="g" horiz-adv-x="660" 
d="M567 79v431h-49v-102q-16 22 -37 43t-47 36.5t-58.5 25t-70.5 9.5q-46 0 -90 -17t-78.5 -48.5t-55.5 -76.5t-21 -100v-2q0 -55 21 -99t55.5 -75.5t78.5 -48.5t90 -17q38 0 70 9.5t58 26t47 37.5t38 45v-74q0 -49 -15 -86t-41.5 -62t-63 -37.5t-80.5 -12.5q-113 0 -206 72
l-29 -40q105 -78 234 -78q54 0 100 16t79.5 46.5t52 75.5t18.5 103zM521 279q0 -44 -18 -79.5t-47.5 -61t-67.5 -39.5t-78 -14q-39 0 -75 14.5t-63 40t-43 61.5t-16 79v2q0 45 15.5 80.5t42.5 60.5t63 38.5t76 13.5t78 -13.5t67.5 -39t47.5 -61.5t18 -80v-2z" />
    <glyph glyph-name="h" unicode="h" horiz-adv-x="613" 
d="M530 0v312q0 46 -13.5 84.5t-40 66.5t-64.5 43.5t-86 15.5q-70 0 -114 -31t-70 -76v315h-49v-730h49v295q0 40 13.5 73.5t37.5 57.5t56 37.5t70 13.5q78 0 120 -47.5t42 -126.5v-303h49z" />
    <glyph glyph-name="i" unicode="i" horiz-adv-x="249" 
d="M155 643v67h-61v-67h61zM149 0v510h-49v-510h49z" />
    <glyph glyph-name="j" unicode="j" horiz-adv-x="249" 
d="M155 643v67h-61v-67h61zM149 -45v555h-49v-558q0 -36 -17 -53.5t-44 -17.5q-8 0 -19.5 0.5t-20.5 2.5v-43q20 -4 41 -4q50 0 79.5 29t29.5 89z" />
    <glyph glyph-name="k" unicode="k" horiz-adv-x="560" 
d="M530 0l-230 284l223 226h-65l-316 -327v547h-49v-730h49v124l124 125l202 -249h62z" />
    <glyph glyph-name="l" unicode="l" horiz-adv-x="249" 
d="M149 0v730h-49v-730h49z" />
    <glyph glyph-name="m" unicode="m" horiz-adv-x="951" 
d="M864 0v309q0 48 -13.5 87.5t-39 67t-62 43t-81.5 15.5q-36 0 -64.5 -9t-51 -24.5t-39.5 -35.5t-29 -41q-11 22 -26.5 42t-36.5 35t-48.5 24t-60.5 9q-34 0 -60.5 -8.5t-46.5 -23t-35.5 -33t-27.5 -38.5v91h-49v-510h49v294q0 39 12.5 72t34.5 58t52 39t64 14
q69 0 109 -45.5t40 -125.5v-306h49v297q0 43 13 76.5t35 56.5t51.5 35t61.5 12q71 0 111 -45.5t40 -128.5v-303h49z" />
    <glyph glyph-name="n" unicode="n" horiz-adv-x="613" 
d="M530 0v312q0 46 -13.5 84.5t-40 66.5t-64.5 43.5t-86 15.5q-70 0 -114 -31t-70 -76v95h-49v-510h49v295q0 40 13.5 73.5t37.5 57.5t56 37.5t70 13.5q78 0 120 -47.5t42 -126.5v-303h49z" />
    <glyph glyph-name="o" unicode="o" horiz-adv-x="640" 
d="M582 255v2q0 54 -19.5 102t-54.5 84t-82.5 57.5t-104.5 21.5t-105 -21.5t-83.5 -58.5t-55 -85t-19.5 -102v-2q0 -54 19.5 -102t54.5 -84t82.5 -57.5t104.5 -21.5t105 21.5t83.5 58.5t55 85t19.5 102zM529 253q0 -45 -15.5 -85t-43 -69.5t-66 -47t-83.5 -17.5
q-44 0 -82.5 17t-67 47t-44.5 70.5t-16 86.5v2q0 45 15.5 85t43 69.5t66 47t83.5 17.5q44 0 82.5 -17t67 -47t44.5 -70.5t16 -86.5v-2z" />
    <glyph glyph-name="p" unicode="p" horiz-adv-x="660" 
d="M600 255v2q0 62 -21.5 111.5t-56.5 83.5t-79.5 52t-90.5 18q-38 0 -69.5 -10.5t-57 -27.5t-46.5 -40t-37 -48v114h-49v-670h49v270q16 -24 36.5 -46t46 -39t57.5 -27t70 -10q46 0 90.5 18.5t79.5 53t56.5 84t21.5 111.5zM547 253q0 -51 -15.5 -91.5t-42.5 -68.5
t-63.5 -43t-78.5 -15q-40 0 -77.5 16t-66.5 44.5t-46.5 69t-17.5 89.5v2q0 49 17.5 89t46.5 69t66.5 45t77.5 16t76.5 -15.5t64 -44t43.5 -69.5t16 -91v-2z" />
    <glyph glyph-name="q" unicode="q" horiz-adv-x="660" 
d="M567 -160v670h-49v-110q-16 24 -36.5 46t-46 39t-57.5 27t-70 10q-46 0 -90.5 -18.5t-79.5 -53t-56.5 -84t-21.5 -111.5v-2q0 -62 21.5 -111.5t56.5 -83.5t79.5 -52t90.5 -18q38 0 69.5 10.5t57 27.5t46 40t37.5 48v-274h49zM521 254q0 -49 -17.5 -89t-46.5 -69
t-66.5 -45t-77.5 -16t-76.5 15.5t-64 44t-43.5 69.5t-16 91v2q0 51 15.5 91.5t42.5 68.5t63.5 43t78.5 15q40 0 77.5 -16t66.5 -44.5t46.5 -69t17.5 -89.5v-2z" />
    <glyph glyph-name="r" unicode="r" horiz-adv-x="400" 
d="M368 464v54q-38 1 -72.5 -9.5t-63.5 -31t-52 -49.5t-38 -63v145h-49v-510h49v209q0 62 18 109.5t48.5 80t70.5 49t84 16.5h5z" />
    <glyph glyph-name="s" unicode="s" horiz-adv-x="497" 
d="M434 139v2q0 34 -14.5 57t-38.5 39.5t-54 27t-61 19.5q-27 8 -53 16.5t-45.5 19.5t-31.5 26.5t-12 36.5v2q0 38 31.5 63.5t84.5 25.5q41 0 81.5 -14t75.5 -37l26 41q-38 26 -86.5 41t-94.5 15q-37 0 -68 -10.5t-53 -29.5t-34.5 -44.5t-12.5 -56.5v-2q0 -34 15.5 -57
t40.5 -38.5t56.5 -25.5t62.5 -19q27 -8 51 -16t43 -20t30 -28t11 -38v-2q0 -45 -35.5 -71t-87.5 -26q-49 0 -95 17.5t-88 49.5l-29 -39q41 -33 97 -53.5t112 -20.5q37 0 69 10.5t56 30t37.5 47t13.5 61.5z" />
    <glyph glyph-name="t" unicode="t" horiz-adv-x="400" 
d="M346 9v46q-22 -10 -39 -14t-36 -4q-45 0 -73.5 22t-28.5 77v329h179v45h-179v163h-49v-163h-74v-45h74v-334q0 -36 11 -62.5t30.5 -44t45.5 -25.5t56 -8q24 0 43.5 4.5t39.5 13.5z" />
    <glyph glyph-name="u" unicode="u" horiz-adv-x="613" 
d="M520 0v510h-49v-295q0 -40 -13.5 -73.5t-37.5 -57.5t-56.5 -37.5t-69.5 -13.5q-78 0 -120 47.5t-42 126.5v303h-49v-312q0 -46 13.5 -84.5t40 -66.5t64.5 -43.5t86 -15.5q70 0 114 31t70 76v-95h49z" />
    <glyph glyph-name="v" unicode="v" horiz-adv-x="582" 
d="M541 510h-55l-195 -455l-193 455h-57l229 -514h42z" />
    <glyph glyph-name="w" unicode="w" horiz-adv-x="861" 
d="M812 510h-53l-154 -448l-154 450h-39l-154 -450l-154 448h-55l187 -514h42l153 437l152 -437h42z" />
    <glyph glyph-name="x" unicode="x" horiz-adv-x="570" 
d="M525 0l-209 261l201 249h-59l-172 -216l-172 216h-61l201 -250l-209 -260h59l180 227l180 -227h61z" />
    <glyph glyph-name="y" unicode="y" horiz-adv-x="588" 
d="M546 510h-54l-184 -456l-212 456h-57l245 -507q-14 -33 -28 -56t-29 -37.5t-32 -20.5t-37 -6q-29 0 -48 4.5t-39 14.5l-17 -43q26 -11 49 -16.5t52 -5.5q55 0 95.5 32.5t74.5 112.5z" />
    <glyph glyph-name="z" unicode="z" horiz-adv-x="554" 
d="M499 0v44h-368l368 438v28h-427v-44h354l-368 -438v-28h441z" />
    <glyph glyph-name="braceleft" unicode="{" horiz-adv-x="480" 
d="M423 683l-7 32q-67 -13 -108.5 -31.5t-64 -43.5t-30.5 -57t-8 -71v-79q0 -29 -5.5 -52.5t-19 -40t-37 -25.5t-58.5 -9h-26v-38h26q35 0 58.5 -9t37 -25.5t19 -40t5.5 -52.5v-79q0 -39 8 -71t30.5 -57t64 -43.5t108.5 -31.5l7 32q-57 15 -91 30t-51 35t-22 47t-5 65v75
q0 33 -7 57t-20 40.5t-32.5 27.5t-44.5 19q24 7 43 18t32.5 28t21 41t7.5 57v75q0 38 5 65t22 47t51 35t91 30z" />
    <glyph glyph-name="bar" unicode="|" horiz-adv-x="286" 
d="M165 -128v926h-44v-926h44z" />
    <glyph glyph-name="braceright" unicode="}" horiz-adv-x="480" 
d="M57 -109l7 -32q67 13 108.5 31.5t64 43.5t30.5 57t8 71v79q0 29 5.5 52.5t19 40t37 25.5t58.5 9h26v38h-26q-35 0 -58.5 9t-37 25.5t-19 40t-5.5 52.5v79q0 39 -8 71t-30.5 57t-64 43.5t-108.5 31.5l-7 -32q57 -15 91 -30t51 -35t22 -47t5 -65v-75q0 -33 7 -57t20 -40.5
t32.5 -27.5t44.5 -19q-24 -7 -43 -18t-32.5 -28t-21 -41t-7.5 -57v-75q0 -38 -5 -65t-22 -47t-51 -35t-91 -30z" />
    <glyph glyph-name="asciitilde" unicode="~" horiz-adv-x="460" 
d="M378 344l-34 9q-11 -29 -21.5 -39.5t-28.5 -10.5q-13 0 -29 6.5t-33.5 14t-34.5 14t-31 6.5q-30 0 -50 -19.5t-34 -73.5l34 -9q11 29 21.5 39.5t28.5 10.5q13 0 29 -6.5t33.5 -14t34.5 -14t31 -6.5q30 0 50 19.5t34 73.5z" />
    <glyph glyph-name="nonbreakingspace" unicode="&#xa0;" horiz-adv-x="300" 
 />
    <glyph glyph-name="exclamdown" unicode="&#xa1;" horiz-adv-x="252" 
d="M93 700v-85h66v85h-66zM155 0v70l-15 447h-28l-15 -447v-70h58z" />
    <glyph glyph-name="cent" unicode="&#xa2;" horiz-adv-x="581" 
d="M530 189l-34 30q-32 -36 -74.5 -60.5t-96.5 -24.5q-19 0 -35 3l83 433q37 -10 64.5 -31t53.5 -47l35 36q-28 29 -61 53t-80 34l18 91h-50l-16 -84h-15q-55 0 -102.5 -21.5t-82.5 -58.5t-55 -85.5t-20 -102.5q0 -43 12.5 -82.5t35.5 -72.5t55 -58t71 -38l-22 -109h50
l19 97q19 -3 39 -3q70 0 119.5 28.5t88.5 72.5zM330 576l-82 -427q-59 25 -96 80t-37 127q0 46 16 86t43.5 70t65 47t81.5 17h9z" />
    <glyph glyph-name="sterling" unicode="&#xa3;" horiz-adv-x="644" 
d="M156 353h-86v-48h86v-260l-86 -20v-25h511v47h-374v258h298v48h-298v119q0 88 42 139.5t121 51.5q31 0 56 -7t45.5 -19t37.5 -28.5t32 -35.5l40 31q-17 22 -37.5 41.5t-46 34t-56.5 22.5t-70 8q-51 0 -90.5 -17.5t-67.5 -49.5t-42.5 -76t-14.5 -96v-118z" />
    <glyph glyph-name="currency" unicode="&#xa4;" horiz-adv-x="720" 
d="M144 416q-2 -17 -3.5 -33.5t-1.5 -33.5q0 -29 3 -56h-83v-48h90q13 -57 38.5 -104.5t62 -81.5t81.5 -52.5t97 -18.5q42 0 76 11.5t62.5 32t52.5 47.5t44 58l-38 25q-37 -57 -83 -92.5t-111 -35.5q-42 0 -78.5 15.5t-66 43t-51 66.5t-33.5 86h286v48h-295q-3 28 -3 58
q0 17 1.5 33t3.5 32h293v48h-284q12 44 33 81t49 64t61.5 42t71.5 15q36 0 64 -8t52 -23.5t45 -38t41 -51.5l40 27q-20 30 -43.5 55.5t-52.5 44.5t-64.5 29.5t-79.5 10.5q-48 0 -91 -18.5t-78 -51.5t-60.5 -78.5t-38.5 -99.5h-94v-48h85z" />
    <glyph glyph-name="yen" unicode="&#xa5;" horiz-adv-x="686" 
d="M368 268h213v45h-196l269 387h-60l-250 -373l-249 373h-63l268 -387h-195v-45h213v-98h-213v-45h213v-125h50v125h213v45h-213v98z" />
    <glyph glyph-name="section" unicode="&#xa7;" horiz-adv-x="632" 
d="M567 336q0 25 -10.5 45t-34.5 36.5t-62.5 30.5t-94.5 28q-51 12 -86 24.5t-56.5 25t-31 26.5t-9.5 31q0 33 28 55.5t88 22.5t109.5 -23.5t84.5 -58.5l38 36q-42 42 -101 68.5t-126 26.5q-80 0 -128 -34.5t-48 -91.5q0 -35 23.5 -62t62.5 -44q-68 -8 -108 -38.5t-40 -75.5
q0 -25 10.5 -45t34.5 -36.5t62.5 -31t94.5 -27.5q51 -12 86 -24.5t56.5 -25t31 -27t9.5 -30.5q0 -33 -28 -55.5t-88 -22.5t-109.5 23.5t-84.5 58.5l-38 -36q42 -42 101 -68.5t126 -26.5q80 0 128 34.5t48 91.5q0 35 -23.5 62t-62.5 44q68 8 108 38.5t40 75.5zM515 332
q0 -31 -35 -55t-94 -24q-21 0 -48.5 3.5t-63.5 12.5q-47 12 -77.5 23.5t-48 23.5t-24.5 25t-7 27q0 31 35 55t94 24q21 0 48 -3.5t64 -12.5q47 -12 77.5 -23.5t48 -23.5t24.5 -25t7 -27z" />
    <glyph glyph-name="dieresis" unicode="&#xa8;" 
d="M366 595v80h-69v-80h69zM203 595v80h-69v-80h69z" />
    <glyph glyph-name="copyright" unicode="&#xa9;" horiz-adv-x="830" 
d="M777 351q0 74 -28 140t-76.5 115t-114.5 77.5t-142 28.5t-142.5 -29t-115.5 -78.5t-77 -115.5t-28 -140t28 -140t76.5 -115t114.5 -77.5t142 -28.5t142.5 29t115.5 78.5t77 115.5t28 140zM747 351q0 -69 -25.5 -130t-70 -106.5t-105.5 -72t-132 -26.5t-131.5 26
t-105 71.5t-69.5 106t-25 129.5t25.5 130t70 106.5t105.5 72t132 26.5t131.5 -26t105 -71.5t69.5 -106t25 -129.5zM563 230l-28 28q-26 -25 -52 -38.5t-63 -13.5q-29 0 -54.5 12t-44 32.5t-29.5 47.5t-11 58t10 58t28.5 47t44 32t55.5 12q35 0 62.5 -15.5t49.5 -36.5l30 31
q-28 26 -60 43.5t-81 17.5q-39 0 -72.5 -15t-58 -41t-38.5 -60.5t-14 -73.5t14 -73.5t38.5 -60t57.5 -40.5t72 -15q49 0 82 17.5t62 46.5z" />
    <glyph glyph-name="ordfeminine" unicode="&#xaa;" horiz-adv-x="390" 
d="M309 417v174q0 56 -31.5 84t-86.5 28q-29 0 -53 -7t-50 -19l13 -34q23 11 43.5 17.5t44.5 6.5q38 0 60.5 -19.5t22.5 -57.5v-5q-17 5 -36.5 8t-46.5 3q-56 0 -90 -24.5t-34 -69.5q0 -23 9.5 -40t25 -28.5t35 -17t39.5 -5.5q32 0 56.5 12.5t41.5 34.5v-41h37zM314 293v40
h-252v-40h252zM272 524q0 -17 -8 -31.5t-21 -24.5t-30.5 -15.5t-36.5 -5.5q-29 0 -50 14.5t-21 42.5q0 26 21 42t61 16q28 0 48 -3t37 -8v-27z" />
    <glyph glyph-name="guillemotleft" unicode="&#xab;" horiz-adv-x="515" 
d="M415 468l-160 -209v-8l160 -209l37 24l-137 190l137 188zM211 468l-160 -209v-8l160 -209l37 24l-137 190l137 188z" />
    <glyph glyph-name="registered" unicode="&#xae;" horiz-adv-x="830" 
d="M777 351q0 74 -28 140t-76.5 115t-114.5 77.5t-142 28.5t-142.5 -29t-115.5 -78.5t-77 -115.5t-28 -140t28 -140t76.5 -115t114.5 -77.5t142 -28.5t142.5 29t115.5 78.5t77 115.5t28 140zM747 351q0 -69 -25.5 -130t-70 -106.5t-105.5 -72t-132 -26.5t-131.5 26
t-105 71.5t-69.5 106t-25 129.5t25.5 130t70 106.5t105.5 72t132 26.5t131.5 -26t105 -71.5t69.5 -106t25 -129.5zM575 437q0 49 -38 77.5t-97 28.5h-164v-366h43v147h106l116 -147h56l-122 154q45 8 72.5 34.5t27.5 71.5zM530 435q0 -35 -27.5 -53t-69.5 -18h-114v138h119
q43 0 67.5 -17.5t24.5 -49.5z" />
    <glyph glyph-name="macron" unicode="&#xaf;" 
d="M400 600v53h-300v-53h300z" />
    <glyph glyph-name="macron" unicode="&#x2c9;" 
d="M400 600v53h-300v-53h300z" />
    <glyph glyph-name="degree" unicode="&#xb0;" horiz-adv-x="450" 
d="M376 559q0 30 -12.5 56.5t-33.5 46.5t-48 32t-57 12t-57 -12t-48 -32t-33.5 -46.5t-12.5 -56.5t12.5 -56.5t33.5 -46.5t48 -32t57 -12t57 12t48 32t33.5 46.5t12.5 56.5zM326 559q0 -20 -7.5 -39t-21 -33t-32 -22.5t-40.5 -8.5t-40.5 8.5t-32 22.5t-21 33t-7.5 39
t7.5 38.5t21 33t32 23t40.5 8.5t40.5 -8.5t32 -23t21 -33t7.5 -38.5z" />
    <glyph glyph-name="plusminus" unicode="&#xb1;" horiz-adv-x="600" 
d="M537 185q0 35 -11.5 63t-32 49t-48.5 36.5t-60 24.5q24 8 48 21.5t43 34t30.5 48t11.5 63.5q0 40 -16.5 74.5t-46 59.5t-69.5 39t-88 14q-81 0 -139 -35.5t-98 -94.5l40 -24q38 52 84.5 79.5t110.5 27.5q38 0 69 -10.5t53 -29.5t34 -45t12 -57q0 -35 -14.5 -62.5
t-39.5 -46t-59 -28.5t-74 -10h-71v-46h70q99 0 153 -38.5t54 -107.5q0 -34 -13.5 -61.5t-37.5 -47t-56.5 -30t-70.5 -10.5q-71 0 -125 30.5t-93 82.5l-42 -31q42 -56 107.5 -92.5t150.5 -36.5q51 0 94 15.5t74 42t48.5 62.5t17.5 77z" />
    <glyph glyph-name="acute" unicode="&#xb4;" 
d="M236 595l107 103l-61 30l-88 -133h42z" />
    <glyph glyph-name="mu" unicode="&#xb5;" horiz-adv-x="850" 
d="M777 351q0 72 -25 137.5t-71 115t-111 79t-144 29.5q-80 0 -145 -29.5t-111 -80t-71.5 -116t-25.5 -137.5t25 -137.5t71 -115t110.5 -79t144.5 -29.5q48 0 90.5 11t80.5 31l142 -131h75v4l-170 160q64 51 99.5 126.5t35.5 161.5zM723 349q0 -65 -22 -122.5t-61.5 -100
t-94 -67t-119.5 -24.5t-120 25t-94.5 68t-62 100.5t-22.5 122.5t22 122.5t61.5 100t94 67t119.5 24.5t120 -25t94.5 -68t62 -100.5t22.5 -122.5z" />
    <glyph glyph-name="mu" unicode="&#x3bc;" horiz-adv-x="850" 
d="M777 351q0 72 -25 137.5t-71 115t-111 79t-144 29.5q-80 0 -145 -29.5t-111 -80t-71.5 -116t-25.5 -137.5t25 -137.5t71 -115t110.5 -79t144.5 -29.5q48 0 90.5 11t80.5 31l142 -131h75v4l-170 160q64 51 99.5 126.5t35.5 161.5zM723 349q0 -65 -22 -122.5t-61.5 -100
t-94 -67t-119.5 -24.5t-120 25t-94.5 68t-62 100.5t-22.5 122.5t22 122.5t61.5 100t94 67t119.5 24.5t120 -25t94.5 -68t62 -100.5t22.5 -122.5z" />
    <glyph glyph-name="paragraph" unicode="&#xb6;" horiz-adv-x="480" 
d="M312 700q-57 0 -104.5 -14.5t-82 -41.5t-53.5 -66.5t-19 -88.5q0 -51 21 -90.5t58 -66.5t87 -41t108 -14h6v-277h53v700h-74z" />
    <glyph glyph-name="periodcentered" unicode="&#xb7;" horiz-adv-x="230" 
d="M148 255v85h-66v-85h66z" />
    <glyph glyph-name="cedilla" unicode="&#xb8;" 
d="M252 10l-90 -132l55 -26l78 158h-43z" />
    <glyph glyph-name="ordmasculine" unicode="&#xba;" horiz-adv-x="390" 
d="M339 559q0 30 -10.5 56.5t-29.5 46.5t-45.5 31.5t-57.5 11.5q-32 0 -58.5 -12t-45.5 -32t-30 -47t-11 -57t10.5 -56.5t29.5 -46.5t45.5 -31.5t57.5 -11.5t58 12t46 32t30 47t11 57zM339 293v40h-288v-40h288zM296 557q0 -45 -27.5 -76t-72.5 -31q-44 0 -73 31.5t-29 77.5
q0 45 27.5 76t72.5 31q44 0 73 -31.5t29 -77.5z" />
    <glyph glyph-name="guillemotright" unicode="&#xbb;" horiz-adv-x="515" 
d="M304 42l160 209v8l-160 209l-37 -24l137 -190l-137 -188zM100 42l160 209v8l-160 209l-37 -24l137 -190l-137 -188z" />
    <glyph glyph-name="questiondown" unicode="&#xbf;" horiz-adv-x="534" 
d="M256 700v-85h66v85h-66zM313 350l5 5l-13 162h-32l-9 -125q-44 -5 -82.5 -20t-67 -40.5t-45.5 -61.5t-17 -83q0 -41 15.5 -76.5t43.5 -62t68 -42t90 -15.5q40 0 73 8.5t61 24.5t52 37.5t45 48.5l-36 30q-39 -48 -86 -75.5t-107 -27.5q-38 0 -69 12t-52.5 33t-33 48.5
t-11.5 58.5q0 73 54 116t154 45z" />
    <glyph glyph-name="Agrave" unicode="&#xc0;" horiz-adv-x="790" 
d="M746 0l-326 705h-50l-326 -705h54l89 196h413l89 -196h57zM578 243h-369l185 405zM370 765h42l-88 133l-61 -30z" />
    <glyph glyph-name="Aacute" unicode="&#xc1;" horiz-adv-x="790" 
d="M746 0l-326 705h-50l-326 -705h54l89 196h413l89 -196h57zM578 243h-369l185 405zM420 765l107 103l-61 30l-88 -133h42z" />
    <glyph glyph-name="Acircumflex" unicode="&#xc2;" horiz-adv-x="790" 
d="M746 0l-326 705h-50l-326 -705h54l89 196h413l89 -196h57zM578 243h-369l185 405zM394 828l74 -68h47l-100 122h-40l-100 -122h45z" />
    <glyph glyph-name="Atilde" unicode="&#xc3;" horiz-adv-x="790" 
d="M746 0l-326 705h-50l-326 -705h54l89 196h413l89 -196h57zM578 243h-369l185 405zM543 858l-34 9q-11 -29 -21.5 -39.5t-28.5 -10.5q-13 0 -29 6.5t-33.5 14t-34.5 14t-31 6.5q-30 0 -50 -19.5t-34 -73.5l34 -9q11 29 21.5 39.5t28.5 10.5q13 0 29 -6.5t33.5 -14
t34.5 -14t31 -6.5q30 0 50 19.5t34 73.5z" />
    <glyph glyph-name="Adieresis" unicode="&#xc4;" horiz-adv-x="790" 
d="M746 0l-326 705h-50l-326 -705h54l89 196h413l89 -196h57zM578 243h-369l185 405zM511 765v80h-69v-80h69zM348 765v80h-69v-80h69z" />
    <glyph glyph-name="Aring" unicode="&#xc5;" horiz-adv-x="790" 
d="M357 678l-313 -678h54l89 196h413l89 -196h57l-313 678q26 11 43 34t17 52q0 19 -8 36.5t-21.5 30t-31.5 20t-37 7.5q-20 0 -37.5 -7.5t-31 -20t-21.5 -30t-8 -36.5q0 -29 17 -52t43 -34zM457 764q0 -26 -18 -44t-44 -18t-44 18t-18 44t18 44t44 18t44 -18t18 -44z
M578 243h-369l185 405z" />
    <glyph glyph-name="AE" unicode="&#xc6;" horiz-adv-x="1045" 
d="M194 196h300v-196h488v48h-436v281h386v48h-386v275h431v48h-533l-424 -700h56zM468 653h26v-410h-272z" />
    <glyph glyph-name="Ccedilla" unicode="&#xc7;" horiz-adv-x="738" 
d="M388 -11l-76 -111l55 -26l67 136q44 1 81 10.5t69 25.5t60 38t55 48l-35 34q-53 -53 -109 -81t-132 -28q-63 0 -117 24.5t-93.5 67t-62.5 100t-23 124.5t22.5 124.5t62 99.5t93.5 66t117 24q39 0 72.5 -8t62 -21.5t53.5 -32.5t48 -41l37 38q-27 25 -55.5 45.5t-61 35.5
t-70.5 23t-85 8q-76 0 -140 -28.5t-110.5 -78t-73 -115.5t-26.5 -141q0 -72 23.5 -134.5t65.5 -110.5t99.5 -78.5t126.5 -36.5z" />
    <glyph glyph-name="Egrave" unicode="&#xc8;" horiz-adv-x="670" 
d="M607 0v48h-451v281h401v48h-401v275h446v48h-498v-700h503zM349 765h42l-88 133l-61 -30z" />
    <glyph glyph-name="Eacute" unicode="&#xc9;" horiz-adv-x="670" 
d="M607 0v48h-451v281h401v48h-401v275h446v48h-498v-700h503zM351 765l107 103l-61 30l-88 -133h42z" />
    <glyph glyph-name="Ecircumflex" unicode="&#xca;" horiz-adv-x="670" 
d="M607 0v48h-451v281h401v48h-401v275h446v48h-498v-700h503zM348 833l74 -68h47l-100 122h-40l-100 -122h45z" />
    <glyph glyph-name="Edieresis" unicode="&#xcb;" horiz-adv-x="670" 
d="M607 0v48h-451v281h401v48h-401v275h446v48h-498v-700h503zM465 765v80h-69v-80h69zM302 765v80h-69v-80h69z" />
    <glyph glyph-name="Igrave" unicode="&#xcc;" horiz-adv-x="274" 
d="M163 0v700h-52v-700h52zM219 765h42l-88 133l-61 -30z" />
    <glyph glyph-name="Iacute" unicode="&#xcd;" horiz-adv-x="274" 
d="M163 0v700h-52v-700h52zM161 765l107 103l-61 30l-88 -133h42z" />
    <glyph glyph-name="Icircumflex" unicode="&#xce;" horiz-adv-x="274" 
d="M163 0v700h-52v-700h52zM231 833l74 -68h47l-100 122h-40l-100 -122h45z" />
    <glyph glyph-name="Idieresis" unicode="&#xcf;" horiz-adv-x="274" 
d="M163 0v700h-52v-700h52zM344 765v80h-69v-80h69zM181 765v80h-69v-80h69z" />
    <glyph glyph-name="Eth" unicode="&#xd0;" horiz-adv-x="812" 
d="M134 328v-328h233q82 0 150.5 27t118 74t76.5 111.5t27 138.5t-27 138t-76.5 111t-118 73.5t-150.5 26.5h-233v-324h-75v-48h75zM186 376v276h181q73 0 132 -23.5t100 -65t63.5 -96.5t22.5 -118t-22.5 -118t-63.5 -95.5t-100 -64t-132 -23.5h-181v280h232v48h-232z" />
    <glyph glyph-name="Ntilde" unicode="&#xd1;" horiz-adv-x="790" 
d="M686 0v700h-50v-609l-483 609h-49v-700h50v622l493 -622h39zM543 858l-34 9q-11 -29 -21.5 -39.5t-28.5 -10.5q-13 0 -29 6.5t-33.5 14t-34.5 14t-31 6.5q-30 0 -50 -19.5t-34 -73.5l34 -9q11 29 21.5 39.5t28.5 10.5q13 0 29 -6.5t33.5 -14t34.5 -14t31 -6.5
q30 0 50 19.5t34 73.5z" />
    <glyph glyph-name="Ograve" unicode="&#xd2;" horiz-adv-x="850" 
d="M777 350q1 1 0 2q0 72 -25 137t-71 114.5t-111 79t-144 29.5q-80 0 -145 -29.5t-111 -79.5t-71.5 -115.5t-25.5 -137.5v-2q0 -72 25 -137t71 -114.5t110.5 -79t144.5 -29.5q79 0 144.5 29.5t111.5 79.5t71.5 115.5t25.5 137.5zM723 348q0 -65 -22 -122t-61.5 -99.5
t-94 -67t-119.5 -24.5t-120 25t-94.5 67.5t-62 100t-22.5 122.5v2q0 65 22 122t61.5 99.5t94 67t119.5 24.5t120 -25t94.5 -67.5t62 -100t22.5 -122.5v-2zM399 765h42l-88 133l-61 -30z" />
    <glyph glyph-name="Oacute" unicode="&#xd3;" horiz-adv-x="850" 
d="M777 350q1 1 0 2q0 72 -25 137t-71 114.5t-111 79t-144 29.5q-80 0 -145 -29.5t-111 -79.5t-71.5 -115.5t-25.5 -137.5v-2q0 -72 25 -137t71 -114.5t110.5 -79t144.5 -29.5q79 0 144.5 29.5t111.5 79.5t71.5 115.5t25.5 137.5zM723 348q0 -65 -22 -122t-61.5 -99.5
t-94 -67t-119.5 -24.5t-120 25t-94.5 67.5t-62 100t-22.5 122.5v2q0 65 22 122t61.5 99.5t94 67t119.5 24.5t120 -25t94.5 -67.5t62 -100t22.5 -122.5v-2zM451 765l107 103l-61 30l-88 -133h42z" />
    <glyph glyph-name="Ocircumflex" unicode="&#xd4;" horiz-adv-x="850" 
d="M777 350q1 1 0 2q0 72 -25 137t-71 114.5t-111 79t-144 29.5q-80 0 -145 -29.5t-111 -79.5t-71.5 -115.5t-25.5 -137.5v-2q0 -72 25 -137t71 -114.5t110.5 -79t144.5 -29.5q79 0 144.5 29.5t111.5 79.5t71.5 115.5t25.5 137.5zM723 348q0 -65 -22 -122t-61.5 -99.5
t-94 -67t-119.5 -24.5t-120 25t-94.5 67.5t-62 100t-22.5 122.5v2q0 65 22 122t61.5 99.5t94 67t119.5 24.5t120 -25t94.5 -67.5t62 -100t22.5 -122.5v-2zM424 833l74 -68h47l-100 122h-40l-100 -122h45z" />
    <glyph glyph-name="Otilde" unicode="&#xd5;" horiz-adv-x="850" 
d="M777 350q1 1 0 2q0 72 -25 137t-71 114.5t-111 79t-144 29.5q-80 0 -145 -29.5t-111 -79.5t-71.5 -115.5t-25.5 -137.5v-2q0 -72 25 -137t71 -114.5t110.5 -79t144.5 -29.5q79 0 144.5 29.5t111.5 79.5t71.5 115.5t25.5 137.5zM723 348q0 -65 -22 -122t-61.5 -99.5
t-94 -67t-119.5 -24.5t-120 25t-94.5 67.5t-62 100t-22.5 122.5v2q0 65 22 122t61.5 99.5t94 67t119.5 24.5t120 -25t94.5 -67.5t62 -100t22.5 -122.5v-2zM573 858l-34 9q-11 -29 -21.5 -39.5t-28.5 -10.5q-13 0 -29 6.5t-33.5 14t-34.5 14t-31 6.5q-30 0 -50 -19.5
t-34 -73.5l34 -9q11 29 21.5 39.5t28.5 10.5q13 0 29 -6.5t33.5 -14t34.5 -14t31 -6.5q30 0 50 19.5t34 73.5z" />
    <glyph glyph-name="Odieresis" unicode="&#xd6;" horiz-adv-x="850" 
d="M777 350q1 1 0 2q0 72 -25 137t-71 114.5t-111 79t-144 29.5q-80 0 -145 -29.5t-111 -79.5t-71.5 -115.5t-25.5 -137.5v-2q0 -72 25 -137t71 -114.5t110.5 -79t144.5 -29.5q79 0 144.5 29.5t111.5 79.5t71.5 115.5t25.5 137.5zM723 348q0 -65 -22 -122t-61.5 -99.5
t-94 -67t-119.5 -24.5t-120 25t-94.5 67.5t-62 100t-22.5 122.5v2q0 65 22 122t61.5 99.5t94 67t119.5 24.5t120 -25t94.5 -67.5t62 -100t22.5 -122.5v-2zM541 765v80h-69v-80h69zM378 765v80h-69v-80h69z" />
    <glyph glyph-name="Oslash" unicode="&#xd8;" horiz-adv-x="850" 
d="M777 351q0 70 -23.5 134t-68.5 113l100 107h-60l-71 -76q-45 39 -102 61t-126 22q-80 0 -145 -29.5t-111 -80t-71.5 -116t-25.5 -137.5q0 -70 23.5 -134t68.5 -114l-100 -106h60l71 76q45 -39 102 -61t126 -22q79 0 144.5 29.5t111.5 80t71.5 116t25.5 137.5zM621 591
l-421 -452q-35 43 -54.5 97t-19.5 115q0 66 22 123t61.5 100t94.5 67.5t120 24.5q59 0 109 -20t88 -55zM724 349q0 -66 -22 -123t-61.5 -100t-94.5 -67.5t-120 -24.5q-59 0 -109 20t-88 55l421 452q35 -43 54.5 -97t19.5 -115z" />
    <glyph glyph-name="Ugrave" unicode="&#xd9;" horiz-adv-x="760" 
d="M667 297v403h-52v-409q0 -63 -16.5 -111t-47 -80t-73.5 -48t-96 -16q-112 0 -174.5 67.5t-62.5 192.5v404h-52v-409q0 -74 21 -130t59.5 -94.5t91 -58t115.5 -19.5q64 0 116.5 20t90.5 59t59 96.5t21 132.5zM363 760h42l-88 133l-61 -30z" />
    <glyph glyph-name="Uacute" unicode="&#xda;" horiz-adv-x="760" 
d="M667 297v403h-52v-409q0 -63 -16.5 -111t-47 -80t-73.5 -48t-96 -16q-112 0 -174.5 67.5t-62.5 192.5v404h-52v-409q0 -74 21 -130t59.5 -94.5t91 -58t115.5 -19.5q64 0 116.5 20t90.5 59t59 96.5t21 132.5zM397 760l107 103l-61 30l-88 -133h42z" />
    <glyph glyph-name="Ucircumflex" unicode="&#xdb;" horiz-adv-x="760" 
d="M667 297v403h-52v-409q0 -63 -16.5 -111t-47 -80t-73.5 -48t-96 -16q-112 0 -174.5 67.5t-62.5 192.5v404h-52v-409q0 -74 21 -130t59.5 -94.5t91 -58t115.5 -19.5q64 0 116.5 20t90.5 59t59 96.5t21 132.5zM379 828l74 -68h47l-100 122h-40l-100 -122h45z" />
    <glyph glyph-name="Udieresis" unicode="&#xdc;" horiz-adv-x="760" 
d="M667 297v403h-52v-409q0 -63 -16.5 -111t-47 -80t-73.5 -48t-96 -16q-112 0 -174.5 67.5t-62.5 192.5v404h-52v-409q0 -74 21 -130t59.5 -94.5t91 -58t115.5 -19.5q64 0 116.5 20t90.5 59t59 96.5t21 132.5zM496 760v80h-69v-80h69zM333 760v80h-69v-80h69z" />
    <glyph glyph-name="Yacute" unicode="&#xdd;" horiz-adv-x="716" 
d="M684 700h-62l-263 -376l-262 376h-65l300 -423v-277h52v278zM382 760l107 103l-61 30l-88 -133h42z" />
    <glyph glyph-name="Thorn" unicode="&#xde;" horiz-adv-x="673" 
d="M618 358q0 51 -19 91t-53.5 67.5t-82 42t-105.5 14.5h-202v127h-52v-700h52v133h189q55 0 104.5 14.5t87 42.5t59.5 70t22 98zM566 355q0 -39 -16 -71.5t-44.5 -55t-68.5 -35t-89 -12.5h-192v344h198q47 0 86 -11t67 -32t43.5 -53t15.5 -74z" />
    <glyph glyph-name="germandbls" unicode="&#xdf;" horiz-adv-x="620" 
d="M512 561q0 37 -14 69t-40.5 56t-63 37.5t-81.5 13.5q-51 0 -91.5 -17.5t-69 -49t-44 -75t-15.5 -95.5v-500h49v500q0 44 12.5 79.5t35 60t53.5 38t67 13.5q33 0 60.5 -10t47 -27.5t30.5 -41.5t11 -53q0 -35 -13 -62.5t-35.5 -49t-53.5 -37.5t-68 -27v-41
q99 -11 157 -48.5t58 -105.5q0 -71 -58 -108t-157 -39v-43q62 0 111.5 13t84.5 37.5t53.5 60.5t18.5 81q0 41 -17 71.5t-45 52.5t-64.5 35.5t-75.5 20.5q29 10 57.5 27.5t50.5 41.5t35.5 54.5t13.5 67.5z" />
    <glyph glyph-name="agrave" unicode="&#xe0;" horiz-adv-x="574" 
d="M491 0v318q0 100 -57 150t-156 50q-53 0 -96 -12t-85 -32l18 -43q35 18 74 29.5t86 11.5q79 0 123.5 -39t44.5 -117v-22q-37 10 -76 16t-93 6q-50 0 -91 -11t-70 -32t-45.5 -52t-16.5 -71v-2q0 -40 17.5 -70t45.5 -50t63 -30t71 -10t66.5 8.5t54.5 22t42.5 31t31.5 35.5
v-85h48zM444 191q0 -35 -15.5 -64t-42 -49.5t-61.5 -32t-74 -11.5q-29 0 -56 8t-47.5 23t-32.5 36.5t-12 49.5v2q0 54 43.5 86.5t124.5 32.5q55 0 98 -7.5t75 -15.5v-58zM264 595h42l-88 133l-61 -30z" />
    <glyph glyph-name="aacute" unicode="&#xe1;" horiz-adv-x="574" 
d="M491 0v318q0 100 -57 150t-156 50q-53 0 -96 -12t-85 -32l18 -43q35 18 74 29.5t86 11.5q79 0 123.5 -39t44.5 -117v-22q-37 10 -76 16t-93 6q-50 0 -91 -11t-70 -32t-45.5 -52t-16.5 -71v-2q0 -40 17.5 -70t45.5 -50t63 -30t71 -10t66.5 8.5t54.5 22t42.5 31t31.5 35.5
v-85h48zM444 191q0 -35 -15.5 -64t-42 -49.5t-61.5 -32t-74 -11.5q-29 0 -56 8t-47.5 23t-32.5 36.5t-12 49.5v2q0 54 43.5 86.5t124.5 32.5q55 0 98 -7.5t75 -15.5v-58zM298 595l107 103l-61 30l-88 -133h42z" />
    <glyph glyph-name="acircumflex" unicode="&#xe2;" horiz-adv-x="574" 
d="M491 0v318q0 100 -57 150t-156 50q-53 0 -96 -12t-85 -32l18 -43q35 18 74 29.5t86 11.5q79 0 123.5 -39t44.5 -117v-22q-37 10 -76 16t-93 6q-50 0 -91 -11t-70 -32t-45.5 -52t-16.5 -71v-2q0 -40 17.5 -70t45.5 -50t63 -30t71 -10t66.5 8.5t54.5 22t42.5 31t31.5 35.5
v-85h48zM444 191q0 -35 -15.5 -64t-42 -49.5t-61.5 -32t-74 -11.5q-29 0 -56 8t-47.5 23t-32.5 36.5t-12 49.5v2q0 54 43.5 86.5t124.5 32.5q55 0 98 -7.5t75 -15.5v-58zM289 663l74 -68h47l-100 122h-40l-100 -122h45z" />
    <glyph glyph-name="atilde" unicode="&#xe3;" horiz-adv-x="574" 
d="M491 0v318q0 100 -57 150t-156 50q-53 0 -96 -12t-85 -32l18 -43q35 18 74 29.5t86 11.5q79 0 123.5 -39t44.5 -117v-22q-37 10 -76 16t-93 6q-50 0 -91 -11t-70 -32t-45.5 -52t-16.5 -71v-2q0 -40 17.5 -70t45.5 -50t63 -30t71 -10t66.5 8.5t54.5 22t42.5 31t31.5 35.5
v-85h48zM444 191q0 -35 -15.5 -64t-42 -49.5t-61.5 -32t-74 -11.5q-29 0 -56 8t-47.5 23t-32.5 36.5t-12 49.5v2q0 54 43.5 86.5t124.5 32.5q55 0 98 -7.5t75 -15.5v-58zM438 688l-34 9q-11 -29 -21.5 -39.5t-28.5 -10.5q-13 0 -29 6.5t-33.5 14t-34.5 14t-31 6.5
q-30 0 -50 -19.5t-34 -73.5l34 -9q11 29 21.5 39.5t28.5 10.5q13 0 29 -6.5t33.5 -14t34.5 -14t31 -6.5q30 0 50 19.5t34 73.5z" />
    <glyph glyph-name="adieresis" unicode="&#xe4;" horiz-adv-x="574" 
d="M491 0v318q0 100 -57 150t-156 50q-53 0 -96 -12t-85 -32l18 -43q35 18 74 29.5t86 11.5q79 0 123.5 -39t44.5 -117v-22q-37 10 -76 16t-93 6q-50 0 -91 -11t-70 -32t-45.5 -52t-16.5 -71v-2q0 -40 17.5 -70t45.5 -50t63 -30t71 -10t66.5 8.5t54.5 22t42.5 31t31.5 35.5
v-85h48zM444 191q0 -35 -15.5 -64t-42 -49.5t-61.5 -32t-74 -11.5q-29 0 -56 8t-47.5 23t-32.5 36.5t-12 49.5v2q0 54 43.5 86.5t124.5 32.5q55 0 98 -7.5t75 -15.5v-58zM406 595v80h-69v-80h69zM243 595v80h-69v-80h69z" />
    <glyph glyph-name="aring" unicode="&#xe5;" horiz-adv-x="574" 
d="M491 0v318q0 100 -57 150t-156 50q-53 0 -96 -12t-85 -32l18 -43q35 18 74 29.5t86 11.5q79 0 123.5 -39t44.5 -117v-22q-37 10 -76 16t-93 6q-50 0 -91 -11t-70 -32t-45.5 -52t-16.5 -71v-2q0 -40 17.5 -70t45.5 -50t63 -30t71 -10t66.5 8.5t54.5 22t42.5 31t31.5 35.5
v-85h48zM444 191q0 -35 -15.5 -64t-42 -49.5t-61.5 -32t-74 -11.5q-29 0 -56 8t-47.5 23t-32.5 36.5t-12 49.5v2q0 54 43.5 86.5t124.5 32.5q55 0 98 -7.5t75 -15.5v-58zM388 687q0 19 -8 36.5t-21.5 30t-31.5 20t-37 7.5q-20 0 -37.5 -7.5t-31 -20t-21.5 -30t-8 -36.5
q0 -20 8 -37t21.5 -29.5t31 -20t37.5 -7.5q19 0 37 7.5t31.5 20t21.5 29.5t8 37zM352 687q0 -26 -18 -44t-44 -18t-44 18t-18 44t18 44t44 18t44 -18t18 -44z" />
    <glyph glyph-name="ae" unicode="&#xe6;" horiz-adv-x="954" 
d="M472 100q34 -53 88.5 -82.5t117.5 -29.5q73 0 122.5 27t88.5 69l-34 30q-32 -34 -73.5 -57t-101.5 -23q-37 0 -71.5 13.5t-62 39.5t-45.5 63t-21 85h423q1 6 1 10v9q0 57 -16.5 106t-47 85t-73.5 56.5t-97 20.5q-68 0 -122 -36t-84 -96q-17 64 -67 96t-126 32
q-51 0 -91 -12t-83 -32l18 -43q35 18 71.5 29.5t81.5 11.5q77 0 119 -39t42 -117v-22q-37 10 -73.5 16t-86.5 6q-48 0 -88 -11t-69 -32.5t-45 -52.5t-16 -71t17 -70t44 -50.5t61.5 -30.5t69.5 -10q76 0 132.5 33t96.5 79zM480 279q3 42 19 78.5t40.5 63t57.5 41.5t71 15
q44 0 77 -16.5t55.5 -44t35 -63t15.5 -74.5h-371zM428 250q1 -30 6.5 -57t15.5 -52q-37 -46 -87.5 -76.5t-116.5 -30.5q-29 0 -55 8t-45.5 23t-31 37t-11.5 50q0 54 42 87t121 33q49 0 89.5 -7t72.5 -15z" />
    <glyph glyph-name="ccedilla" unicode="&#xe7;" horiz-adv-x="571" 
d="M284 -10l-76 -112l55 -26l67 136q66 3 112 31t84 70l-34 30q-32 -36 -74.5 -60.5t-96.5 -24.5q-44 0 -82 17t-66.5 47t-45 70.5t-16.5 87.5q0 46 16 86t43.5 70t65 47t81.5 17q57 0 97 -25t73 -59l35 36q-18 19 -38.5 36t-45.5 30t-54.5 20.5t-65.5 7.5
q-55 0 -102.5 -21.5t-82.5 -58.5t-55 -85.5t-20 -102.5q0 -50 17 -95t47 -80.5t71.5 -59t90.5 -29.5z" />
    <glyph glyph-name="egrave" unicode="&#xe8;" horiz-adv-x="584" 
d="M110 235h423q1 6 1 9v9v2q0 57 -16.5 105.5t-47 84.5t-73.5 56.5t-97 20.5q-52 0 -96 -21t-76.5 -57t-51 -84.5t-18.5 -103.5v-2q0 -60 20 -109t54.5 -84t80 -54t95.5 -19q73 0 122.5 27t88.5 69l-34 30q-32 -34 -73.5 -57t-101.5 -23q-38 0 -72.5 13.5t-61.5 39.5
t-45 63t-21 85zM110 279q3 42 19 78.5t40.5 63t57.5 41.5t71 15q44 0 77 -16.5t55.5 -44t35 -63t15.5 -74.5h-371zM286 595h42l-88 133l-61 -30z" />
    <glyph glyph-name="eacute" unicode="&#xe9;" horiz-adv-x="584" 
d="M110 235h423q1 6 1 9v9v2q0 57 -16.5 105.5t-47 84.5t-73.5 56.5t-97 20.5q-52 0 -96 -21t-76.5 -57t-51 -84.5t-18.5 -103.5v-2q0 -60 20 -109t54.5 -84t80 -54t95.5 -19q73 0 122.5 27t88.5 69l-34 30q-32 -34 -73.5 -57t-101.5 -23q-38 0 -72.5 13.5t-61.5 39.5
t-45 63t-21 85zM110 279q3 42 19 78.5t40.5 63t57.5 41.5t71 15q44 0 77 -16.5t55.5 -44t35 -63t15.5 -74.5h-371zM299 595l107 103l-61 30l-88 -133h42z" />
    <glyph glyph-name="ecircumflex" unicode="&#xea;" horiz-adv-x="584" 
d="M110 235h423q1 6 1 9v9v2q0 57 -16.5 105.5t-47 84.5t-73.5 56.5t-97 20.5q-52 0 -96 -21t-76.5 -57t-51 -84.5t-18.5 -103.5v-2q0 -60 20 -109t54.5 -84t80 -54t95.5 -19q73 0 122.5 27t88.5 69l-34 30q-32 -34 -73.5 -57t-101.5 -23q-38 0 -72.5 13.5t-61.5 39.5
t-45 63t-21 85zM110 279q3 42 19 78.5t40.5 63t57.5 41.5t71 15q44 0 77 -16.5t55.5 -44t35 -63t15.5 -74.5h-371zM296 663l74 -68h47l-100 122h-40l-100 -122h45z" />
    <glyph glyph-name="edieresis" unicode="&#xeb;" horiz-adv-x="584" 
d="M110 235h423q1 6 1 9v9v2q0 57 -16.5 105.5t-47 84.5t-73.5 56.5t-97 20.5q-52 0 -96 -21t-76.5 -57t-51 -84.5t-18.5 -103.5v-2q0 -60 20 -109t54.5 -84t80 -54t95.5 -19q73 0 122.5 27t88.5 69l-34 30q-32 -34 -73.5 -57t-101.5 -23q-38 0 -72.5 13.5t-61.5 39.5
t-45 63t-21 85zM110 279q3 42 19 78.5t40.5 63t57.5 41.5t71 15q44 0 77 -16.5t55.5 -44t35 -63t15.5 -74.5h-371zM413 595v80h-69v-80h69zM250 595v80h-69v-80h69z" />
    <glyph glyph-name="igrave" unicode="&#xec;" horiz-adv-x="249" 
d="M149 0v510h-49v-510h49zM208 595h42l-88 133l-61 -30z" />
    <glyph glyph-name="iacute" unicode="&#xed;" horiz-adv-x="249" 
d="M149 0v510h-49v-510h49zM148 595l107 103l-61 30l-88 -133h42z" />
    <glyph glyph-name="icircumflex" unicode="&#xee;" horiz-adv-x="249" 
d="M149 0v510h-49v-510h49zM220 663l74 -68h47l-100 122h-40l-100 -122h45z" />
    <glyph glyph-name="idieresis" unicode="&#xef;" horiz-adv-x="249" 
d="M149 0v510h-49v-510h49zM333 595v80h-69v-80h69zM170 595v80h-69v-80h69z" />
    <glyph glyph-name="eth" unicode="&#xf0;" horiz-adv-x="628" 
d="M328 631l147 -208q-33 26 -74.5 44.5t-102.5 18.5q-47 0 -90.5 -17.5t-76.5 -49t-53 -76.5t-20 -99q0 -52 19 -98.5t52.5 -81.5t79.5 -55.5t100 -20.5q59 0 107 21t81.5 57t52 83t18.5 99q0 36 -6 68t-17.5 61t-27.5 57.5t-36 57.5l-109 161l102 50l-28 36l-98 -50
l-27 41h-63l45 -64l-137 -67l29 -36zM515 243q0 -42 -14.5 -79.5t-41 -66.5t-63.5 -46t-82 -17q-44 0 -81.5 17.5t-64.5 46t-42 66t-15 77.5q0 42 13.5 79t38.5 64t60.5 42.5t80.5 15.5t83.5 -16t67 -43t44.5 -63t16 -77z" />
    <glyph glyph-name="ntilde" unicode="&#xf1;" horiz-adv-x="613" 
d="M530 0v312q0 46 -13.5 84.5t-40 66.5t-64.5 43.5t-86 15.5q-70 0 -114 -31t-70 -76v95h-49v-510h49v295q0 40 13.5 73.5t37.5 57.5t56 37.5t70 13.5q78 0 120 -47.5t42 -126.5v-303h49zM459 688l-34 9q-11 -29 -21.5 -39.5t-28.5 -10.5q-13 0 -29 6.5t-33.5 14t-34.5 14
t-31 6.5q-30 0 -50 -19.5t-34 -73.5l34 -9q11 29 21.5 39.5t28.5 10.5q13 0 29 -6.5t33.5 -14t34.5 -14t31 -6.5q30 0 50 19.5t34 73.5z" />
    <glyph glyph-name="ograve" unicode="&#xf2;" horiz-adv-x="640" 
d="M582 255v2q0 54 -19.5 102t-54.5 84t-82.5 57.5t-104.5 21.5t-105 -21.5t-83.5 -58.5t-55 -85t-19.5 -102v-2q0 -54 19.5 -102t54.5 -84t82.5 -57.5t104.5 -21.5t105 21.5t83.5 58.5t55 85t19.5 102zM529 253q0 -45 -15.5 -85t-43 -69.5t-66 -47t-83.5 -17.5
q-44 0 -82.5 17t-67 47t-44.5 70.5t-16 86.5v2q0 45 15.5 85t43 69.5t66 47t83.5 17.5q44 0 82.5 -17t67 -47t44.5 -70.5t16 -86.5v-2zM298 595h42l-88 133l-61 -30z" />
    <glyph glyph-name="oacute" unicode="&#xf3;" horiz-adv-x="640" 
d="M582 255v2q0 54 -19.5 102t-54.5 84t-82.5 57.5t-104.5 21.5t-105 -21.5t-83.5 -58.5t-55 -85t-19.5 -102v-2q0 -54 19.5 -102t54.5 -84t82.5 -57.5t104.5 -21.5t105 21.5t83.5 58.5t55 85t19.5 102zM529 253q0 -45 -15.5 -85t-43 -69.5t-66 -47t-83.5 -17.5
q-44 0 -82.5 17t-67 47t-44.5 70.5t-16 86.5v2q0 45 15.5 85t43 69.5t66 47t83.5 17.5q44 0 82.5 -17t67 -47t44.5 -70.5t16 -86.5v-2zM342 595l107 103l-61 30l-88 -133h42z" />
    <glyph glyph-name="ocircumflex" unicode="&#xf4;" horiz-adv-x="640" 
d="M582 255v2q0 54 -19.5 102t-54.5 84t-82.5 57.5t-104.5 21.5t-105 -21.5t-83.5 -58.5t-55 -85t-19.5 -102v-2q0 -54 19.5 -102t54.5 -84t82.5 -57.5t104.5 -21.5t105 21.5t83.5 58.5t55 85t19.5 102zM529 253q0 -45 -15.5 -85t-43 -69.5t-66 -47t-83.5 -17.5
q-44 0 -82.5 17t-67 47t-44.5 70.5t-16 86.5v2q0 45 15.5 85t43 69.5t66 47t83.5 17.5q44 0 82.5 -17t67 -47t44.5 -70.5t16 -86.5v-2zM319 663l74 -68h47l-100 122h-40l-100 -122h45z" />
    <glyph glyph-name="otilde" unicode="&#xf5;" horiz-adv-x="640" 
d="M582 255v2q0 54 -19.5 102t-54.5 84t-82.5 57.5t-104.5 21.5t-105 -21.5t-83.5 -58.5t-55 -85t-19.5 -102v-2q0 -54 19.5 -102t54.5 -84t82.5 -57.5t104.5 -21.5t105 21.5t83.5 58.5t55 85t19.5 102zM529 253q0 -45 -15.5 -85t-43 -69.5t-66 -47t-83.5 -17.5
q-44 0 -82.5 17t-67 47t-44.5 70.5t-16 86.5v2q0 45 15.5 85t43 69.5t66 47t83.5 17.5q44 0 82.5 -17t67 -47t44.5 -70.5t16 -86.5v-2zM468 688l-34 9q-11 -29 -21.5 -39.5t-28.5 -10.5q-13 0 -29 6.5t-33.5 14t-34.5 14t-31 6.5q-30 0 -50 -19.5t-34 -73.5l34 -9
q11 29 21.5 39.5t28.5 10.5q13 0 29 -6.5t33.5 -14t34.5 -14t31 -6.5q30 0 50 19.5t34 73.5z" />
    <glyph glyph-name="odieresis" unicode="&#xf6;" horiz-adv-x="640" 
d="M582 255v2q0 54 -19.5 102t-54.5 84t-82.5 57.5t-104.5 21.5t-105 -21.5t-83.5 -58.5t-55 -85t-19.5 -102v-2q0 -54 19.5 -102t54.5 -84t82.5 -57.5t104.5 -21.5t105 21.5t83.5 58.5t55 85t19.5 102zM529 253q0 -45 -15.5 -85t-43 -69.5t-66 -47t-83.5 -17.5
q-44 0 -82.5 17t-67 47t-44.5 70.5t-16 86.5v2q0 45 15.5 85t43 69.5t66 47t83.5 17.5q44 0 82.5 -17t67 -47t44.5 -70.5t16 -86.5v-2zM436 595v80h-69v-80h69zM273 595v80h-69v-80h69z" />
    <glyph glyph-name="oslash" unicode="&#xf8;" horiz-adv-x="640" 
d="M582 256q0 51 -17 96.5t-48 80.5l80 84h-57l-52 -56q-33 29 -75.5 45t-91.5 16q-57 0 -105 -21.5t-83.5 -58.5t-55 -85.5t-19.5 -102.5q0 -51 17 -96t47 -81l-79 -82h57l52 53q33 -28 75.5 -44t91.5 -16q57 0 105 21.5t83.5 58.5t55 85.5t19.5 102.5zM457 424l-300 -311
q-23 29 -35 65t-12 78q0 46 15.5 86.5t43 70.5t66 47t84.5 17q41 0 75.5 -14t62.5 -39zM530 254q0 -47 -15.5 -87t-43.5 -70t-66 -47t-84 -17q-40 0 -75 13.5t-63 38.5l299 312q23 -29 35.5 -65t12.5 -78z" />
    <glyph glyph-name="ugrave" unicode="&#xf9;" horiz-adv-x="613" 
d="M520 0v510h-49v-295q0 -40 -13.5 -73.5t-37.5 -57.5t-56.5 -37.5t-69.5 -13.5q-78 0 -120 47.5t-42 126.5v303h-49v-312q0 -46 13.5 -84.5t40 -66.5t64.5 -43.5t86 -15.5q70 0 114 31t70 76v-95h49zM289 591h42l-88 133l-61 -30z" />
    <glyph glyph-name="uacute" unicode="&#xfa;" horiz-adv-x="613" 
d="M520 0v510h-49v-295q0 -40 -13.5 -73.5t-37.5 -57.5t-56.5 -37.5t-69.5 -13.5q-78 0 -120 47.5t-42 126.5v303h-49v-312q0 -46 13.5 -84.5t40 -66.5t64.5 -43.5t86 -15.5q70 0 114 31t70 76v-95h49zM319 591l107 103l-61 30l-88 -133h42z" />
    <glyph glyph-name="ucircumflex" unicode="&#xfb;" horiz-adv-x="613" 
d="M520 0v510h-49v-295q0 -40 -13.5 -73.5t-37.5 -57.5t-56.5 -37.5t-69.5 -13.5q-78 0 -120 47.5t-42 126.5v303h-49v-312q0 -46 13.5 -84.5t40 -66.5t64.5 -43.5t86 -15.5q70 0 114 31t70 76v-95h49zM307 663l74 -68h47l-100 122h-40l-100 -122h45z" />
    <glyph glyph-name="udieresis" unicode="&#xfc;" horiz-adv-x="613" 
d="M520 0v510h-49v-295q0 -40 -13.5 -73.5t-37.5 -57.5t-56.5 -37.5t-69.5 -13.5q-78 0 -120 47.5t-42 126.5v303h-49v-312q0 -46 13.5 -84.5t40 -66.5t64.5 -43.5t86 -15.5q70 0 114 31t70 76v-95h49zM424 595v80h-69v-80h69zM261 595v80h-69v-80h69z" />
    <glyph glyph-name="yacute" unicode="&#xfd;" horiz-adv-x="588" 
d="M546 510h-54l-184 -456l-212 456h-57l245 -507q-14 -33 -28 -56t-29 -37.5t-32 -20.5t-37 -6q-29 0 -48 4.5t-39 14.5l-17 -43q26 -11 49 -16.5t52 -5.5q55 0 95.5 32.5t74.5 112.5zM323 591l107 103l-61 30l-88 -133h42z" />
    <glyph glyph-name="thorn" unicode="&#xfe;" horiz-adv-x="660" 
d="M600 256q0 63 -21.5 112t-56.5 83.5t-79.5 52.5t-90.5 18q-38 0 -69.5 -10.5t-57 -27.5t-46.5 -40t-37 -48v334h-49v-890h49v270q16 -24 36.5 -46t46 -39t57.5 -27t70 -10q46 0 90.5 18.5t79.5 53t56.5 84t21.5 112.5zM547 254q0 -52 -15.5 -92.5t-42.5 -68.5t-63.5 -43
t-78.5 -15q-40 0 -77.5 16t-66.5 44.5t-46.5 69t-17.5 90.5q0 49 17.5 89.5t46.5 69.5t66.5 45t77.5 16t76.5 -15.5t64 -44.5t43.5 -69.5t16 -91.5z" />
    <glyph glyph-name="ydieresis" unicode="&#xff;" horiz-adv-x="588" 
d="M546 510h-54l-184 -456l-212 456h-57l245 -507q-14 -33 -28 -56t-29 -37.5t-32 -20.5t-37 -6q-29 0 -48 4.5t-39 14.5l-17 -43q26 -11 49 -16.5t52 -5.5q55 0 95.5 32.5t74.5 112.5zM410 595v80h-69v-80h69zM247 595v80h-69v-80h69z" />
    <glyph glyph-name="dotlessi" unicode="&#x131;" horiz-adv-x="249" 
d="M149 0v510h-49v-510h49z" />
    <glyph glyph-name="Lslash" unicode="&#x141;" horiz-adv-x="649" 
d="M597 0v48h-412v284l225 69v48l-225 -69v320h-51v-336l-75 -23v-48l75 23v-316h463z" />
    <glyph glyph-name="lslash" unicode="&#x142;" horiz-adv-x="309" 
d="M179 350l76 24v50l-76 -24v330h-49v-345l-76 -23v-50l76 24v-336h49v350z" />
    <glyph glyph-name="OE" unicode="&#x152;" horiz-adv-x="1152" 
d="M1089 0v48h-436v281h386v48h-386v275h431v48h-639q-83 0 -151 -27t-117.5 -74.5t-76.5 -111.5t-27 -138t27 -138t76.5 -111t117.5 -73.5t151 -26.5h644zM601 48h-156q-73 0 -132 23.5t-100 65t-63.5 96.5t-22.5 118t22.5 118t63.5 95.5t100 64t132 23.5h156v-604z" />
    <glyph glyph-name="oe" unicode="&#x153;" horiz-adv-x="1055" 
d="M554 145q15 -36 38 -65.5t53 -49.5t64.5 -31t71.5 -11q72 0 121 27t88 69l-34 30q-32 -34 -73.5 -57t-101.5 -23q-37 0 -71.5 13.5t-62 39.5t-45.5 63t-21 85h423q1 6 1 10v9q0 57 -16.5 106t-47 85t-73.5 56.5t-96 20.5q-75 0 -132.5 -43t-85.5 -113q-15 34 -38 62.5
t-53 49.5t-66.5 32.5t-76.5 11.5q-56 0 -104 -21.5t-83 -58.5t-55 -85.5t-20 -102.5t19.5 -102.5t54.5 -84.5t82.5 -57.5t103.5 -21.5q41 0 77.5 11.5t67 32.5t53.5 50t38 63zM581 279q3 42 19 78.5t40.5 63t57.5 41.5t71 15q44 0 77 -16.5t55.5 -44t35 -63t15.5 -74.5h-371
zM529 254q0 -46 -15.5 -86t-43 -70t-66 -47t-83.5 -17q-44 0 -82.5 17t-67 47t-44.5 70.5t-16 87.5q0 46 15.5 86t43 70t66 47t83.5 17q44 0 82.5 -17.5t67 -47.5t44.5 -70.5t16 -86.5z" />
    <glyph glyph-name="Scaron" unicode="&#x160;" horiz-adv-x="640" 
d="M573 181v2q0 77 -54 122.5t-176 70.5q-62 13 -102 28t-62.5 33.5t-31 41t-8.5 50.5v2q0 27 12 51t34.5 42t54 28.5t70.5 10.5q58 0 108.5 -18t100.5 -61l33 41q-53 43 -108.5 64t-131.5 21q-49 0 -90 -14t-71 -39t-47 -58.5t-17 -72.5v-2q0 -40 13 -71t41.5 -54.5
t73.5 -41t108 -30.5q60 -12 98 -26.5t60.5 -32.5t31 -40t8.5 -50v-2q0 -30 -13 -55.5t-36 -44t-56 -29t-72 -10.5t-72 6.5t-63 19t-58.5 32t-57.5 46.5l-34 -39q63 -56 130.5 -84t151.5 -28q51 0 93.5 14t73 39t48 60.5t17.5 77.5zM328 819l-74 68h-47l100 -122h40l100 122
h-45z" />
    <glyph glyph-name="scaron" unicode="&#x161;" horiz-adv-x="497" 
d="M434 139v2q0 34 -14.5 57t-38.5 39.5t-54 27t-61 19.5q-27 8 -53 16.5t-45.5 19.5t-31.5 26.5t-12 36.5v2q0 38 31.5 63.5t84.5 25.5q41 0 81.5 -14t75.5 -37l26 41q-38 26 -86.5 41t-94.5 15q-37 0 -68 -10.5t-53 -29.5t-34.5 -44.5t-12.5 -56.5v-2q0 -34 15.5 -57
t40.5 -38.5t56.5 -25.5t62.5 -19q27 -8 51 -16t43 -20t30 -28t11 -38v-2q0 -45 -35.5 -71t-87.5 -26q-49 0 -95 17.5t-88 49.5l-29 -39q41 -33 97 -53.5t112 -20.5q37 0 69 10.5t56 30t37.5 47t13.5 61.5zM252 649l-74 68h-47l100 -122h40l100 122h-45z" />
    <glyph glyph-name="Ydieresis" unicode="&#x178;" horiz-adv-x="716" 
d="M684 700h-62l-263 -376l-262 376h-65l300 -423v-277h52v278zM474 760v80h-69v-80h69zM311 760v80h-69v-80h69z" />
    <glyph glyph-name="Zcaron" unicode="&#x17d;" horiz-adv-x="688" 
d="M621 0v47h-479l479 624v29h-536v-47h462l-479 -624v-29h553zM350 819l-74 68h-47l100 -122h40l100 122h-45z" />
    <glyph glyph-name="zcaron" unicode="&#x17e;" horiz-adv-x="554" 
d="M499 0v44h-368l368 438v28h-427v-44h354l-368 -438v-28h441zM287 649l-74 68h-47l100 -122h40l100 122h-45z" />
    <glyph glyph-name="florin" unicode="&#x192;" horiz-adv-x="506" 
d="M470 651v44q-18 5 -34.5 7.5t-40.5 2.5q-60 0 -94.5 -32.5t-48.5 -107.5l-26 -136h-117v-45h109l-49 -263q-15 -82 -82 -82q-26 0 -46 4v-44q10 -2 21.5 -3t27.5 -1q57 0 88.5 30t43.5 93l50 266h163v45h-155l25 133q10 54 31.5 76.5t63.5 22.5q16 0 34 -2.5t36 -7.5z
" />
    <glyph glyph-name="circumflex" unicode="&#x2c6;" 
d="M249 663l74 -68h47l-100 122h-40l-100 -122h45z" />
    <glyph glyph-name="caron" unicode="&#x2c7;" 
d="M251 649l-74 68h-47l100 -122h40l100 122h-45z" />
    <glyph glyph-name="breve" unicode="&#x2d8;" 
d="M383 717h-39q-9 -34 -32 -53.5t-62 -19.5t-62 19.5t-32 53.5h-39q4 -59 40.5 -91.5t92.5 -32.5t92.5 32.5t40.5 91.5z" />
    <glyph glyph-name="dotaccent" unicode="&#x2d9;" 
d="M286 595v81h-72v-81h72z" />
    <glyph glyph-name="ring" unicode="&#x2da;" 
d="M348 687q0 19 -8 36.5t-21.5 30t-31.5 20t-37 7.5q-20 0 -37.5 -7.5t-31 -20t-21.5 -30t-8 -36.5q0 -20 8 -37t21.5 -29.5t31 -20t37.5 -7.5q19 0 37 7.5t31.5 20t21.5 29.5t8 37zM312 687q0 -26 -18 -44t-44 -18t-44 18t-18 44t18 44t44 18t44 -18t18 -44z" />
    <glyph glyph-name="ogonek" unicode="&#x2db;" 
d="M244 10h-43q-6 -14 -10 -31t-4 -36q0 -47 41.5 -78.5t127.5 -28.5v31q-118 6 -118 87q0 29 6 56z" />
    <glyph glyph-name="tilde" unicode="&#x2dc;" 
d="M398 688l-34 9q-11 -29 -21.5 -39.5t-28.5 -10.5q-13 0 -29 6.5t-33.5 14t-34.5 14t-31 6.5q-30 0 -50 -19.5t-34 -73.5l34 -9q11 29 21.5 39.5t28.5 10.5q13 0 29 -6.5t33.5 -14t34.5 -14t31 -6.5q30 0 50 19.5t34 73.5z" />
    <glyph glyph-name="hungarumlaut" unicode="&#x2dd;" 
d="M297 595l101 104l-55 29l-89 -133h43zM145 595l101 104l-55 29l-89 -133h43z" />
    <glyph glyph-name="Omega" unicode="&#x3a9;" horiz-adv-x="724" 
d="M534 510v49q0 129 103 129q20 0 37 -3t39 -10v46q-17 6 -35 9t-41 3q-72 0 -112 -45t-40 -128v-50h-74v-45h74v-465h49v465h178v45h-178zM172 510v49q0 129 103 129q20 0 37 -3t39 -10v46q-17 6 -35 9t-41 3q-72 0 -112 -45t-40 -128v-50h-74v-45h74v-465h49v465h178v45
h-178z" />
    <glyph glyph-name="pi" unicode="&#x3c0;" horiz-adv-x="830" 
d="M777 351q0 74 -28 140t-76.5 115t-114.5 77.5t-142 28.5t-142.5 -29t-115.5 -78.5t-77 -115.5t-28 -140t28 -140t76.5 -115t114.5 -77.5t142 -28.5t142.5 29t115.5 78.5t77 115.5t28 140zM747 351q0 -69 -25.5 -130t-70 -106.5t-105.5 -72t-132 -26.5t-131.5 26
t-105 71.5t-69.5 106t-25 129.5t25.5 130t70 106.5t105.5 72t132 26.5t131.5 -26t105 -71.5t69.5 -106t25 -129.5zM580 425q0 57 -39 86.5t-104 29.5h-141v-366h44v128h90q30 0 57 7.5t47.5 22.5t33 38t12.5 54zM535 423q0 -38 -28 -58.5t-76 -20.5h-91v156h94
q47 0 74 -18.5t27 -58.5z" />
    <glyph glyph-name="endash" unicode="&#x2013;" horiz-adv-x="528" 
d="M458 271v52h-388v-52h388z" />
    <glyph glyph-name="emdash" unicode="&#x2014;" horiz-adv-x="898" 
d="M828 271v52h-758v-52h758z" />
    <glyph glyph-name="quoteleft" unicode="&#x2018;" horiz-adv-x="230" 
d="M172 680l-12 25q-45 -17 -64 -44t-19 -74v-74h66v85h-27q-2 29 11 47t45 35z" />
    <glyph glyph-name="quoteright" unicode="&#x2019;" horiz-adv-x="230" 
d="M58 533l12 -25q45 17 64 44t19 74v74h-66v-85h27q2 -29 -11 -47t-45 -35z" />
    <glyph glyph-name="quotesinglbase" unicode="&#x201a;" horiz-adv-x="230" 
d="M53 -82l12 -25q45 17 64 44t19 74v74h-66v-85h27q2 -29 -11 -47t-45 -35z" />
    <glyph glyph-name="quotedblleft" unicode="&#x201c;" horiz-adv-x="410" 
d="M352 680l-12 25q-45 -17 -64 -44t-19 -74v-74h66v85h-27q-2 29 11 47t45 35zM172 680l-12 25q-45 -17 -64 -44t-19 -74v-74h66v85h-27q-2 29 11 47t45 35z" />
    <glyph glyph-name="quotedblright" unicode="&#x201d;" horiz-adv-x="410" 
d="M238 533l12 -25q45 17 64 44t19 74v74h-66v-85h27q2 -29 -11 -47t-45 -35zM58 533l12 -25q45 17 64 44t19 74v74h-66v-85h27q2 -29 -11 -47t-45 -35z" />
    <glyph glyph-name="quotedblbase" unicode="&#x201e;" horiz-adv-x="410" 
d="M233 -82l12 -25q45 17 64 44t19 74v74h-66v-85h27q2 -29 -11 -47t-45 -35zM53 -82l12 -25q45 17 64 44t19 74v74h-66v-85h27q2 -29 -11 -47t-45 -35z" />
    <glyph glyph-name="dagger" unicode="&#x2020;" horiz-adv-x="410" 
d="M222 524l125 -7v45l-124 -7l7 145h-50l7 -145l-124 7v-45l125 7l-5 -286h44z" />
    <glyph glyph-name="daggerdbl" unicode="&#x2021;" horiz-adv-x="430" 
d="M357 138v45l-125 -7l5 174l-5 174l125 -7v45l-124 -7l7 145h-50l7 -145l-124 7v-45l125 7l-5 -174l5 -174l-125 7v-45l124 7l-7 -145h50l-7 145z" />
    <glyph glyph-name="bullet" unicode="&#x2022;" horiz-adv-x="470" 
d="M359 352q0 25 -10 48t-26.5 39.5t-39.5 26.5t-48 10q-26 0 -48.5 -10t-39 -26.5t-26.5 -39.5t-10 -48q0 -26 10 -48.5t26.5 -39t39 -26.5t48.5 -10q25 0 48 10t39.5 26.5t26.5 39t10 48.5z" />
    <glyph glyph-name="ellipsis" unicode="&#x2026;" horiz-adv-x="680" 
d="M598 0v83h-64v-83h64zM372 0v83h-64v-83h64zM146 0v83h-64v-83h64z" />
    <glyph glyph-name="perthousand" unicode="&#x2030;" horiz-adv-x="1200" 
d="M363 530q0 35 -11 67.5t-31 57t-48.5 39t-62.5 14.5q-35 0 -63.5 -15t-49 -39.5t-31.5 -57t-11 -68.5q0 -35 11 -67.5t31 -57t48 -39t63 -14.5t63.5 15t49 39.5t31.5 57t11 68.5zM642 700l-514 -700h54l514 700h-54zM1145 172q0 35 -11 67.5t-31 57t-48.5 39t-62.5 14.5
q-35 0 -63.5 -15t-49 -39.5t-31.5 -57t-11 -68.5q0 -35 11 -67.5t31 -57t48 -39t63 -14.5t63.5 15t49 39.5t31.5 57t11 68.5zM769 172q0 35 -11 67.5t-31 57t-48.5 39t-62.5 14.5q-35 0 -63.5 -15t-49 -39.5t-31.5 -57t-11 -68.5q0 -35 11 -67.5t31 -57t48 -39t63 -14.5
t63.5 15t49 39.5t31.5 57t11 68.5zM311 528q0 -29 -7.5 -53.5t-21 -42.5t-32 -28.5t-40.5 -10.5q-21 0 -39.5 10t-33 28.5t-22.5 43.5t-8 55q0 28 7.5 53t21 43t32 28.5t40.5 10.5q21 0 39.5 -10t33 -28.5t22.5 -43.5t8 -55zM1093 170q0 -29 -7.5 -53.5t-21 -42.5t-32 -28.5
t-40.5 -10.5q-21 0 -39.5 10t-33 28.5t-22.5 43.5t-8 55q0 28 7.5 53t21 43t32 28.5t40.5 10.5q21 0 39.5 -10t33 -28.5t22.5 -43.5t8 -55zM717 170q0 -29 -7.5 -53.5t-21 -42.5t-32 -28.5t-40.5 -10.5q-21 0 -39.5 10t-33 28.5t-22.5 43.5t-8 55q0 28 7.5 53t21 43t32 28.5
t40.5 10.5q21 0 39.5 -10t33 -28.5t22.5 -43.5t8 -55z" />
    <glyph glyph-name="guilsinglleft" unicode="&#x2039;" horiz-adv-x="311" 
d="M211 468l-160 -209v-8l160 -209l37 24l-137 190l137 188z" />
    <glyph glyph-name="guilsinglright" unicode="&#x203a;" horiz-adv-x="311" 
d="M100 42l160 209v8l-160 209l-37 -24l137 -190l-137 -188z" />
    <glyph glyph-name="trademark" unicode="&#x2122;" horiz-adv-x="690" 
d="M611 638v-246h35v308h-36l-120 -183l-120 183h-37v-308h35v246l119 -178h5zM162 666h101v34h-237v-34h101v-274h35v274z" />
    <glyph glyph-name="fraction" unicode="&#x2215;" horiz-adv-x="410" 
d="M401 758l-468 -856h54l468 856h-54z" />
    <glyph glyph-name="radical" unicode="&#x221a;" horiz-adv-x="973" 
d="M534 510v49q0 129 103 129q20 0 37 -3t39 -10v46q-17 6 -35 9t-41 3q-72 0 -112 -45t-40 -128v-50h-74v-45h74v-465h49v465h178v45h-178zM172 510v49q0 129 103 129q20 0 37 -3t39 -10v46q-17 6 -35 9t-41 3q-72 0 -112 -45t-40 -128v-50h-74v-45h74v-465h49v465h178v45
h-178zM873 0v730h-49v-730h49z" />
    <glyph glyph-name="approxequal" unicode="&#x2248;" horiz-adv-x="973" 
d="M879 643v67h-61v-67h61zM534 510v49q0 129 103 129q20 0 37 -3t39 -10v46q-17 6 -35 9t-41 3q-72 0 -112 -45t-40 -128v-50h-74v-45h74v-465h49v465h178v45h-178zM172 510v49q0 129 103 129q20 0 37 -3t39 -10v46q-17 6 -35 9t-41 3q-72 0 -112 -45t-40 -128v-50h-74v-45
h74v-465h49v465h178v45h-178zM873 0v510h-49v-510h49z" />
    <glyph glyph-name="apple" unicode="&#xf8ff;" horiz-adv-x="967" 
d="M868 0v750h-767v-750h767zM859 -104l-6 34h-1l-13 -26l-13 26h-1l-6 -34h6l3 20l10 -21h2l10 21l3 -20h6zM806 -87q0 7 -4.5 12t-11.5 5q-8 0 -13 -5t-5 -13q0 -7 4.5 -12t12.5 -5t12.5 5t4.5 13zM758 -96q-6 -4 -10 -4q-13 0 -13 13q0 5 3.5 8.5t8.5 3.5q6 0 9 -3l2 5
q-5 3 -11 3q-8 0 -13 -5t-5 -13q0 -17 18 -17q7 0 10 3zM702 -71h-7l-9 -14l-11 15l-6 -1l14 -19v-14h6v14zM656 -104v33h-6v-13h-16v13h-6v-33h6v15h16v-15h6zM612 -82q0 5 -4.5 9t-18.5 2v-33h6v10q17 0 17 12zM576 -104l-16 34h-2l-15 -34h6l3 8h14l4 -8h6zM534 -104
l-10 13q7 3 7 10q0 5 -4.5 8.5t-18.5 1.5v-33h6v11h5l8 -11h7zM491 -101v15h-15v-5h9v-7q-4 -2 -6 -2q-13 0 -13 12q0 13 12 13q7 0 11 -4l2 5q-6 4 -12 4q-8 0 -13.5 -5t-5.5 -13t5 -12.5t13 -4.5q7 0 13 4zM447 -87q0 7 -4.5 12t-11.5 5q-8 0 -13 -5t-5 -13q0 -7 4.5 -12
t12.5 -5t12.5 5t4.5 13zM400 -82q0 5 -4.5 9t-18.5 2v-33h6v10q17 0 17 12zM364 -71h-7l-9 -14l-11 15l-6 -1l14 -19v-14h6v14zM323 -71h-30v-5h12v-28h6v28h12v5zM267 -71h-6l-7 -22l-10 23h-1l-10 -23l-7 23l-6 -1l12 -34h1l10 23l11 -23h1zM211 -71h-6l-7 -22l-10 23h-1
l-10 -23l-7 23l-6 -1l12 -34h1l10 23l11 -23h1zM155 -71h-6l-7 -22l-10 23h-1l-10 -23l-7 23l-6 -1l12 -34h1l10 23l11 -23h1zM716 -101q0 4 -4 4t-4 -4t4 -4t4 4zM284 -101q0 4 -4 4t-4 -4t4 -4t4 4zM559 686h-2l-2.5 4.5t-7.5 4.5q-3 0 -3 -3v-23q0 -5 2 -5h3v-2h-17v2h2
q3 0 3 5v23q0 3 -3 3q-5 0 -7.5 -4.5l-2.5 -4.5h-2l0.5 4.5t0.5 7.5q3 -1 18 -1t17 1q1 -3 1 -8v-4zM504 662h-18v2h2q3 0 3 5v10h-17v-10q0 -4 2.5 -4.5l2.5 -0.5v-2h-17v2l2.5 0.5t2.5 4.5v21q0 5 -3 5h-2v2h17v-1v-1h-3q-2 0 -2 -5v-9h17v9q0 5 -3 5h-2v1v1h18v-2h-3
t-3 -5v-21q0 -5 3 -5h3v-2zM439 664v-2h-30l-2 11l2 1l2.5 -4.5t7.5 -4.5h4q4 0 4 3v11h-4q-5 0 -5.5 -3l-0.5 -3h-2v13h2l0.5 -2.5t5.5 -2.5h4v10q0 3 -4 3h-4q-5 0 -7 -4l-2 -4l-2 1l2 10h29v-2h-3q-2 0 -2 -5v-21q0 -5 2 -5h3zM827 618h-685v6h685v-6zM696 540
q0 -12 -8 -17t-15 -5q-14 0 -25.5 11t-11.5 27q0 12 8 17t15 5q14 0 25.5 -11.5t11.5 -26.5zM589 537q0 -8 -6 -13.5t-19 -5.5q-16 0 -16 13q0 10 9 10q7 0 7 -5t-4 -5q-2 0 -3 1t-2 1q-3 0 -3 -3q0 -9 12 -9t12 14q0 10 -6 15q-5 -5 -11 -5q-8 0 -8 6q0 8 16 6q2 2 2 6
q0 12 -10 12q-7 0 -7 -5q0 -2 1.5 -2.5t1.5 -3.5t-4 -3q-5 0 -5 6q0 11 13 11q11 0 16 -5t5 -10q0 -6 -5 -9q14 -5 14 -17zM295 537q0 -8 -6 -13.5t-19 -5.5q-16 0 -16 13q0 10 9 10q7 0 7 -5t-4 -5q-2 0 -3 1t-2 1q-3 0 -3 -3q0 -9 12 -9t12 14q0 10 -6 15q-5 -5 -11 -5
q-8 0 -8 6q0 8 16 6q2 2 2 6q0 12 -10 12q-7 0 -7 -5q0 -2 1.5 -2.5t1.5 -3.5t-4 -3q-5 0 -5 6q0 11 13 11q11 0 16 -5t5 -10q0 -6 -5 -9q14 -5 14 -17zM820 522l1 -3h-29l-1 3l4.5 0.5t2.5 7.5l-3 16h-24l3 -16q2 -7 6 -7.5l4 -0.5l1 -3h-29l-1 3l4.5 0.5t2.5 7.5l-7 35
q-2 7 -6 7.5l-4 0.5l-1 3h29l1 -3l-4.5 -0.5t-2.5 -7.5l3 -15h24l-3 15q-2 7 -5.5 7.5l-3.5 0.5l-1 3h28l1 -3l-4.5 -0.5t-2.5 -7.5l7 -35q2 -7 6 -7.5zM498 519h-29l-1 3l4.5 0.5t2.5 7.5l-3 17h-4q-7 0 -7.5 -5.5l-0.5 -5.5h-3l-5 23h3l2.5 -4.5t9.5 -4.5h4l-3 16
q-1 6 -6 6h-4q-11 0 -12 -6.5l-1 -6.5h-4l0.5 7t-0.5 10h45l1 -3l-4.5 -0.5t-2.5 -7.5l7 -35q2 -7 6 -7.5l4 -0.5zM202 522l1 -3h-29l-1 3l4.5 0.5t2.5 7.5l-3 15q-4 0 -5 -3l-12 -23h-19l-1 3l5 0.5t9 7.5l9 16q-8 1 -13.5 5t-5.5 10q0 15 20 15h27l1 -3l-4.5 -0.5
t-2.5 -7.5l7 -35q2 -7 6 -7.5zM400 521q0 -3 -4 -3q-9 0 -12 7q-8 0 -10 -6.5t-15 -6.5q-5 0 -10 3.5t-5 8.5q0 7 5 7t5 -5q0 -2 -1 -2.5t-1 -2.5q0 -4 5 -4t8.5 6.5t14.5 6.5q-6 6 -8.5 13.5t-3.5 14.5t-2.5 12t-6.5 5t-5 -6t-4 -6q-5 0 -5 5q0 3 4 6.5t9 3.5
q12 0 16.5 -6.5t6 -15t2 -16t4.5 -10.5q7 -1 10 -4t3 -5zM827 475h-685v6h685v-6zM827 378h-36v28h-11v-65h14v-33h-81v33h14v65h-11v-28h-36v62h147v-62zM648 406h-14l-37 -45v-20h15v-33h-81v33h14v19l-37 46h-12v34h62v-34h-10l15 -23l15 23h-11v34h81v-34zM458 308h-81
v33h15v19h-30q-22 0 -34.5 11.5t-12.5 28.5t12.5 28.5t34.5 11.5h96v-34h-14v-65h14v-33zM283 308h-141v61h41v-28h33v21h-24v24h24v20h-33v-28h-41v62h141v-34h-14v-65h14v-33zM827 271h-685v6h685v-6zM728 192q0 -12 -8 -17t-15 -5q-14 0 -25.5 11t-11.5 27q0 12 8 17
t15 5q14 0 25.5 -11.5t11.5 -26.5zM203 217l-2 -2l-4.5 4.5t-7.5 2.5q-9 0 -9 -13q0 -8 5 -25q2 -8 6 -8.5l4 -0.5l1 -4h-28l-1 4l4.5 1t1.5 14q-3 12 -8.5 22.5t-15.5 10.5q-8 0 -8 -6l-3 1q0 6 3.5 9t8.5 3q8 0 13 -6.5t8 -16.5q-1 23 14 23q8 0 11.5 -4t6.5 -9zM823 171
h-29l-1 3l4.5 0.5t2.5 7.5l-3 17h-4q-7 0 -7.5 -5.5l-0.5 -5.5h-3l-5 23h3l2.5 -4.5t9.5 -4.5h4l-3 16q-1 6 -6 6h-4q-11 0 -12 -6.5l-1 -6.5h-4l0.5 7t-0.5 10h45l1 -3l-4.5 -0.5t-2.5 -7.5l7 -35q2 -7 6 -7.5l4 -0.5zM621 225l-5 -0.5t-3 -8.5l5 -22q2 -8 0 -16t-19 -8
q-14 0 -20 9.5t-8 17.5l-4 19q-2 8 -6.5 8.5l-4.5 0.5l-1 3h24v-3l-4.5 -0.5t-2.5 -8.5l4 -19q2 -9 7 -15.5t13 -6.5q11 0 12 5t-1 15l-5 21q-2 8 -6 8.5l-4 0.5l-1 3h29zM522 174l1 -3h-21l-1 3l4 1t2 9l-6 30l-30 -44l-3 1l-8 45q-2 7 -5.5 8l-3.5 1l-1 3h21l1 -3l-4.5 -1
t-2.5 -8l5 -30l29 42h14l1 -3l-5 -0.5t-3 -8.5l7 -32q2 -8 5.5 -9zM414 171h-32q-13 0 -24 9.5t-11 25.5q0 11 8 16.5t17 5.5h30l1 -3q-11 -1 -8 -10l8 -31q2 -8 6 -8.5l4 -0.5zM306 174l1 -3h-29l-1 3l4.5 0.5t2.5 7.5l-3 15q-4 0 -5 -3l-12 -23h-19l-1 3l5 0.5t9 7.5l9 16
q-8 1 -13.5 5t-5.5 10q0 15 20 15h27l1 -3l-4.5 -0.5t-2.5 -7.5l7 -35q2 -7 6 -7.5zM827 127h-685v6h685v-6zM694 46h-14v2l2.5 1t2.5 4v20l-25 -28h-3v28q0 4 -3 5l-3 1v2h15v-2l-3 -1t-3 -5v-18l24 26h10v-2l-3 -2t-3 -4v-20q0 -3 3 -4l3 -1v-2zM633 48v-2h-30l-2 11l2 1
l2.5 -4.5t7.5 -4.5h4q4 0 4 3v11h-4q-5 0 -5.5 -3l-0.5 -3h-2v13h2l0.5 -2.5t5.5 -2.5h4v10q0 3 -4 3h-4q-5 0 -7 -4l-2 -4l-2 1l2 10h29v-2h-3q-2 0 -2 -5v-21q0 -5 2 -5h3zM583 81v-2l-2.5 -0.5t-4.5 -5.5l-12 -27h-1l-9 16l-8 -16q0 -1 -0.5 -0.5l-0.5 0.5h-1l-13 27
q-2 4 -4 5l-2 1v2h13v-2l-2 -1t0 -5l8 -18l7 13l-3 5q-3 5 -5 5.5l-2 0.5l-1 2h26v-2l-2 -1.5t-4 -4.5l-4 -8l5 -10l9 19q2 3 0 4l-2 1v2h15zM480 79l-2.5 -0.5t-4.5 -4.5l-8 -12v-8q0 -5 2.5 -5.5l2.5 -0.5v-2h-17v2l2.5 0.5t2.5 5.5v8l-8 12q-2 4 -5 4.5l-3 0.5v2h15v-2
l-2.5 -0.5t-0.5 -4.5l6 -9l6 9q2 4 0.5 4.5l-1.5 0.5v2h15v-2zM425 64q0 -8 -5 -13.5t-15 -5.5t-15 5.5t-5 13.5t5 13t15 5t15 -5t5 -13zM364 46h-17v2l2.5 0.5t2.5 4.5v9q-4 0 -7 -4l-7 -12h-11v2l2.5 0.5t5.5 4.5l7 10q-9 4 -9 9q0 9 13 9h18v-2l-2.5 -0.5t-2.5 -5.5v-20
q0 -4 2.5 -4.5l2.5 -0.5v-2zM309 46h-18v2l3 0.5t3 5.5v9q-2 0 -4 -2l-8 -8q-3 -4 -0.5 -4.5l2.5 -0.5v-2h-17v2l2.5 1.5t4.5 3.5l13 13l-10 9q-2 2 -5 3l-3 1v2h14v-2l-1.5 -1t0.5 -3l8 -8q2 -2 4 -2v9q0 4 -3 4.5l-3 0.5v2h18v-2l-3 -0.5t-3 -4.5v-20q0 -4 3 -5l3 -1v-2z
M606 -83q0 -6 -11 -6v13q11 1 11 -7zM525 -82q0 -7 -11 -6v12q11 2 11 -6zM394 -83q0 -6 -11 -6v13q11 1 11 -7zM564 -92h-10l5 12zM800 -88q0 -12 -11 -12t-11 13q0 12 11 12t11 -13zM441 -88q0 -12 -11 -12t-11 13q0 12 11 12t11 -13zM176 548l-3 19q-1 5 -9 5t-8 -9
q0 -5 3.5 -10t11.5 -5h5zM566 553q-2 1 -7 1q-4 0 -4 -3q0 -2 4 -2t7 4zM272 553q-2 1 -7 1q-4 0 -4 -3q0 -2 4 -2t7 4zM684 535q0 16 -8 27.5t-17 11.5q-11 0 -11 -14q0 -15 8 -26.5t17 -11.5q11 0 11 13zM392 384v22h-11q-13 0 -13 -11t13 -11h11zM280 200l-3 19
q-1 5 -9 5t-8 -9q0 -5 3.5 -10t11.5 -5h5zM716 187q0 16 -8 27.5t-17 11.5q-11 0 -11 -14q0 -15 8 -26.5t17 -11.5q11 0 11 13zM393 182l-9 35q-2 5 -2.5 5.5t-3.5 1.5h-6q-14 0 -14 -17q0 -12 7.5 -22t18.5 -10h5q4 0 4 7zM553 79q-5 0 0 -9q4 9 0 9zM352 64v10q0 4 -4 4
q-7 0 -7 -6q0 -8 8 -8h3zM417 64q0 16 -12 16t-12 -16q0 -7 3 -12t9 -5q7 0 9.5 5t2.5 12z" />
    <glyph glyph-name="fi" unicode="&#xfb01;" horiz-adv-x="611" 
d="M517 643v67h-61v-67h61zM172 510v49q0 129 103 129q20 0 37 -3t39 -10v46q-17 6 -35 9t-41 3q-72 0 -112 -45t-40 -128v-50h-74v-45h74v-465h49v465h178v45h-178zM511 0v510h-49v-510h49z" />
    <glyph glyph-name="fl" unicode="&#xfb02;" horiz-adv-x="611" 
d="M172 510v49q0 129 103 129q20 0 37 -3t39 -10v46q-17 6 -35 9t-41 3q-72 0 -112 -45t-40 -128v-50h-74v-45h74v-465h49v465h178v45h-178zM511 0v730h-49v-730h49z" />
    <glyph glyph-name="NUL" horiz-adv-x="0" 
 />
    </font>
</defs>
</svg>
